<?xml version="1.0" standalone="no"?><!DOCTYPE svg PUBLIC "-//W3C//DTD SVG 1.1//EN" "http://www.w3.org/Graphics/SVG/1.1/DTD/svg11.dtd" ><svg xmlns="http://www.w3.org/2000/svg"><metadata></metadata><defs><font id="Helvetica Neue; 6.1d8e1; 2010-04-06" horiz-adv-x="1148"><font-face font-family="Helvetica Neue" font-weight="400" font-stretch="normal" units-per-em="1000" panose-1="2 0 5 3 0 0 0 2 0 4" ascent="952" descent="-213" x-height="4" bbox="-348 -214 1086 952" underline-thickness="50" underline-position="-100" unicode-range="U+0008-fb02" /><missing-glyph horiz-adv-x="500" d="M442 8 l-384 0 l0 496 l384 0 l0 -496 ZM50 512 l0 -512 l400 0 l0 512 l-400 0 Z" /><glyph glyph-name="controlBS" unicode="" d="" /><glyph glyph-name="controlHT" unicode="" d="" /><glyph glyph-name="controlCR" unicode="" d="" /><glyph glyph-name="controlGS" unicode="" d="" /><glyph glyph-name="space" unicode=" " d="" /><glyph glyph-name="exclam" unicode="!" d="M74 111 l0 -111 l111 0 l0 111 l-111 0 ZM177 494 l0 220 l-95 0 l0 -220 l25 -311 l45 0 l25 311 Z" /><glyph glyph-name="quotedbl" unicode="&quot;" d="M249 714 l0 -258 l68 0 l0 258 l-68 0 ZM109 714 l0 -258 l68 0 l0 258 l-68 0 Z" /><glyph glyph-name="numbersign" unicode="#" d="M231 424 l124 0 l-21 -150 l-124 0 l21 150 ZM131 206 l-29 -206 l69 0 l29 206 l124 0 l-29 -206 l69 0 l29 206 l101 0 l0 68 l-91 0 l21 150 l98 0 l0 68 l-89 0 l29 205 l-69 0 l-29 -205 l-124 0 l29 205 l-69 0 l-29 -205 l-111 0 l0 -68 l102 0 l-21 -150 l-107 0 l0 -68 l97 0 Z" /><glyph glyph-name="dollar" unicode="$" d="M110 218 l-85 0 q8 -105 67 -164.5 q59 -59.5 159 -69.5 l0 -82 l55 0 l0 82 q48 4 88 20 q40 16 69 43.5 q29 27.5 45.5 65.5 q16.5 38 16.5 87 q0 46 -17.5 79 q-17.5 33 -42.5 55 q-25 22 -52 34.5 q-27 12.5 -47 17.5 l-60 16 l0 246 q92 -17 112 -116 l85 0 q-20 88 -68 138 q-48 50 -129 60 l0 67 l-55 0 l0 -66 q-43 -3 -80.5 -19 q-37.5 -16 -65 -43.5 q-27.5 -27.5 -43.5 -65 q-16 -37.5 -16 -82.5 q0 -44 12 -75 q12 -31 37.5 -52.5 q25.5 -21.5 64 -37 q38.5 -15.5 91.5 -28.5 l0 -265 q-60 10 -99.5 49 q-39.5 39 -41.5 106 ZM306 63 l0 251 q27 -8 51 -17.5 q24 -9.5 41 -23.5 q17 -14 27 -33.5 q10 -19.5 10 -48.5 q0 -32 -9.5 -55.5 q-9.5 -23.5 -27 -39 q-17.5 -15.5 -41 -23.5 q-23.5 -8 -51.5 -10 ZM251 651 l0 -234 q-25 7 -46 16 q-21 9 -36.5 21.5 q-15.5 12.5 -24 31 q-8.5 18.5 -8.5 44.5 q0 57 33.5 86.5 q33.5 29.5 81.5 34.5 Z" /><glyph glyph-name="percent" unicode="%" d="M167 508 q0 23 3 48.5 q3 25.5 12.5 47 q9.5 21.5 26.5 36 q17 14.5 45 14.5 q29 0 45.5 -14.5 q16.5 -14.5 25.5 -36 q9 -21.5 11.5 -47 q2.5 -25.5 2.5 -47.5 q0 -23 -3 -49 q-3 -26 -12.5 -47.5 q-9.5 -21.5 -26.5 -35.5 q-17 -14 -46 -14 q-28 0 -44.5 14.5 q-16.5 14.5 -25.5 36 q-9 21.5 -11.5 47 q-2.5 25.5 -2.5 47.5 ZM92 506 q0 -41 8.5 -77 q8.5 -36 27.5 -63 q19 -27 50 -42.5 q31 -15.5 76 -15.5 q44 0 74 17 q30 17 49.5 44.5 q19.5 27.5 28 64 q8.5 36.5 8.5 75.5 q0 41 -7.5 77.5 q-7.5 36.5 -26 63.5 q-18.5 27 -49 43 q-30.5 16 -77.5 16 q-46 0 -77 -16.5 q-31 -16.5 -50 -44.5 q-19 -28 -27 -64.5 q-8 -36.5 -8 -77.5 ZM661 188 q0 23 3 48.5 q3 25.5 12.5 47 q9.5 21.5 26.5 36 q17 14.5 45 14.5 q29 0 45.5 -14.5 q16.5 -14.5 25.5 -36 q9 -21.5 11.5 -47 q2.5 -25.5 2.5 -47.5 q0 -23 -3 -49 q-3 -26 -12.5 -47.5 q-9.5 -21.5 -26.5 -35.5 q-17 -14 -46 -14 q-28 0 -44.5 14.5 q-16.5 14.5 -25.5 36 q-9 21.5 -11.5 47 q-2.5 25.5 -2.5 47.5 ZM586 186 q0 -41 8.5 -77 q8.5 -36 27.5 -62.5 q19 -26.5 50 -42 q31 -15.5 76 -15.5 q44 0 74 16.5 q30 16.5 49.5 44 q19.5 27.5 28 64 q8.5 36.5 8.5 75.5 q0 41 -7.5 77.5 q-7.5 36.5 -26 63.5 q-18.5 27 -49 43 q-30.5 16 -77.5 16 q-46 0 -77 -16.5 q-31 -16.5 -50 -44.5 q-19 -28 -27 -64.5 q-8 -36.5 -8 -77.5 ZM726 722 l-538 -743 l86 0 l537 743 l-85 0 Z" /><glyph glyph-name="ampersand" unicode="&amp;" d="M275 439 q-12 15 -24 30 q-12 15 -22 30.5 q-10 15.5 -16.5 31.5 q-6.5 16 -6.5 32 q0 39 26 57.5 q26 18.5 56 18.5 q38 0 60 -22.5 q22 -22.5 22 -53.5 q0 -23 -9 -41.5 q-9 -18.5 -23 -33.5 q-14 -15 -31 -27 q-17 -12 -32 -22 ZM458 89 l76 -89 l111 0 l-139 161 q11 24 19 42.5 q8 18.5 13.5 37.5 q5.5 19 9 41.5 q3.5 22.5 6.5 54.5 l-81 0 q-3 -55 -23 -111 l-129 157 q26 15 50 33.5 q24 18.5 43 41.5 q19 23 30 50.5 q11 27.5 11 59.5 q0 36 -14.5 63.5 q-14.5 27.5 -38.5 46 q-24 18.5 -55.5 27.5 q-31.5 9 -64.5 9 q-39 0 -69 -12 q-30 -12 -50.5 -32.5 q-20.5 -20.5 -31 -47 q-10.5 -26.5 -10.5 -55.5 q0 -27 6.5 -48.5 q6.5 -21.5 18 -41 q11.5 -19.5 25.5 -38.5 q14 -19 29 -40 q-34 -18 -64.5 -38.5 q-30.5 -20.5 -53 -46 q-22.5 -25.5 -36 -57.5 q-13.5 -32 -13.5 -74 q0 -22 7.5 -55 q7.5 -33 31.5 -64 q24 -31 68 -53 q44 -22 116 -22 q59 0 114.5 25 q55.5 25 87.5 75 ZM247 345 l164 -197 q-26 -39 -64.5 -62 q-38.5 -23 -87.5 -23 q-26 0 -50.5 9 q-24.5 9 -43.5 24.5 q-19 15.5 -30.5 38 q-11.5 22.5 -11.5 49.5 q0 32 10 55.5 q10 23.5 27 42.5 q17 19 39.5 34 q22.5 15 47.5 29 Z" /><glyph glyph-name="quotesingle" unicode="&#39;" d="M105 714 l0 -258 l68 0 l0 258 l-68 0 Z" /><glyph glyph-name="parenleft" unicode="(" d="M204 -197 l65 0 q-71 115 -101.5 228 q-30.5 113 -30.5 239 q0 123 30 235 q30 112 102 226 l-65 0 q-78 -103 -117.5 -223 q-39.5 -120 -39.5 -238 q0 -66 11 -126 q11 -60 31.5 -117 q20.5 -57 49.5 -112.5 q29 -55.5 65 -111.5 Z" /><glyph glyph-name="parenright" unicode=")" d="M-9 -197 l64 0 q78 103 117.5 222.5 q39.5 119.5 39.5 237.5 q0 66 -11 126 q-11 60 -31.5 117.5 q-20.5 57.5 -49.5 113 q-29 55.5 -65 111.5 l-64 0 q70 -115 100.5 -228.5 q30.5 -113.5 30.5 -239.5 q0 -122 -30 -234.5 q-30 -112.5 -101 -225.5 Z" /><glyph glyph-name="asterisk" unicode="*" d="M201 601 l0 113 l-53 0 l0 -113 l-106 40 l-18 -48 l106 -38 l-65 -91 l45 -31 l65 96 l69 -96 l41 31 l-66 91 l109 38 l-20 48 l-107 -40 Z" /><glyph glyph-name="plus" unicode="+" d="M334 287 l0 219 l-68 0 l0 -219 l-218 0 l0 -68 l218 0 l0 -219 l68 0 l0 219 l218 0 l0 68 l-218 0 Z" /><glyph glyph-name="comma" unicode="," d="M83 111 l0 -111 l59 0 q1 -12 -1.5 -26 q-2.5 -14 -9.5 -27.5 q-7 -13.5 -18.5 -25 q-11.5 -11.5 -28.5 -17.5 l0 -50 q58 17 84 58 q26 41 26 98 l0 101 l-111 0 Z" /><glyph glyph-name="hyphen" unicode="-" d="M50 318 l0 -80 l289 0 l0 80 l-289 0 Z" /><glyph glyph-name="period" unicode="." d="M83 111 l0 -111 l111 0 l0 111 l-111 0 Z" /><glyph glyph-name="slash" unicode="/" d="M278 731 l-295 -747 l72 0 l296 747 l-73 0 Z" /><glyph glyph-name="zero" unicode="0" d="M132 349 q0 26 0.5 57.5 q0.5 31.5 5 63 q4.5 31.5 13 61.5 q8.5 30 25 52.5 q16.5 22.5 41.5 36.5 q25 14 61 14 q36 0 61 -14 q25 -14 41.5 -36.5 q16.5 -22.5 25 -52.5 q8.5 -30 13 -61.5 q4.5 -31.5 5 -63 q0.5 -31.5 0.5 -57.5 q0 -40 -2.5 -89.5 q-2.5 -49.5 -16 -93 q-13.5 -43.5 -43.5 -73.5 q-30 -30 -84 -30 q-54 0 -84 30 q-30 30 -43.5 73.5 q-13.5 43.5 -16 93 q-2.5 49.5 -2.5 89.5 ZM42 348 q0 -39 2 -81 q2 -42 10 -82 q8 -40 23 -75.5 q15 -35.5 41 -62.5 q26 -27 65.5 -42.5 q39.5 -15.5 94.5 -15.5 q56 0 95 15.5 q39 15.5 65 42.5 q26 27 41 62.5 q15 35.5 23 75.5 q8 40 10 82 q2 42 2 81 q0 39 -2 81 q-2 42 -10 82 q-8 40 -23 76 q-15 36 -41 63 q-26 27 -65.5 43 q-39.5 16 -94.5 16 q-55 0 -94.5 -16 q-39.5 -16 -65.5 -43 q-26 -27 -41 -63 q-15 -36 -23 -76 q-8 -40 -10 -82 q-2 -42 -2 -81 Z" /><glyph glyph-name="one" unicode="1" d="M356 0 l0 709 l-65 0 q-7 -40 -26 -66 q-19 -26 -46.5 -41 q-27.5 -15 -61.5 -20.5 q-34 -5.5 -70 -5.5 l0 -68 l184 0 l0 -508 l85 0 Z" /><glyph glyph-name="two" unicode="2" d="M44 458 l85 0 q-1 32 6.5 63.5 q7.5 31.5 24.5 56.5 q17 25 43.5 40.5 q26.5 15.5 63.5 15.5 q28 0 53 -9 q25 -9 43.5 -26 q18.5 -17 29.5 -40.5 q11 -23.5 11 -52.5 q0 -37 -11.5 -65 q-11.5 -28 -34 -52 q-22.5 -24 -56.5 -47.5 q-34 -23.5 -79 -51.5 q-37 -22 -71 -47 q-34 -25 -61 -58 q-27 -33 -44.5 -77.5 q-17.5 -44.5 -22.5 -107.5 l463 0 l0 75 l-364 0 q6 33 25.5 58.5 q19.5 25.5 47 47.5 q27.5 22 60.5 41.5 q33 19.5 66 39.5 q33 21 64 44 q31 23 55 51.5 q24 28.5 38.5 64.5 q14.5 36 14.5 83 q0 50 -17.5 88 q-17.5 38 -47.5 63.5 q-30 25.5 -70.5 39 q-40.5 13.5 -86.5 13.5 q-56 0 -100 -19 q-44 -19 -73.5 -52.5 q-29.5 -33.5 -43.5 -79.5 q-14 -46 -11 -100 Z" /><glyph glyph-name="three" unicode="3" d="M218 405 l0 -72 q24 3 51 3 q32 0 59.5 -8.5 q27.5 -8.5 47.5 -26 q20 -17.5 32 -43 q12 -25.5 12 -58.5 q0 -32 -12.5 -57.5 q-12.5 -25.5 -33.5 -43 q-21 -17.5 -49 -27 q-28 -9.5 -59 -9.5 q-73 0 -111 43.5 q-38 43.5 -40 112.5 l-85 0 q-1 -55 15.5 -98 q16.5 -43 47.5 -72.5 q31 -29.5 75 -44.5 q44 -15 98 -15 q50 0 94.5 13.5 q44.5 13.5 77.5 40.5 q33 27 52.5 67.5 q19.5 40.5 19.5 93.5 q0 64 -31.5 111 q-31.5 47 -96.5 61 l0 2 q42 19 70 56 q28 37 28 85 q0 49 -16.5 85 q-16.5 36 -45.5 59 q-29 23 -68.5 34.5 q-39.5 11.5 -85.5 11.5 q-53 0 -93.5 -17 q-40.5 -17 -67.5 -47 q-27 -30 -41.5 -72 q-14.5 -42 -16.5 -93 l85 0 q0 31 8 59 q8 28 24.5 49 q16.5 21 42 33.5 q25.5 12.5 59.5 12.5 q54 0 90 -28.5 q36 -28.5 36 -85.5 q0 -28 -11 -50 q-11 -22 -29.5 -36.5 q-18.5 -14.5 -43 -22 q-24.5 -7.5 -51.5 -7.5 l-18 0 q-5 0 -10 0 q-4 0 -9 1 Z" /><glyph glyph-name="four" unicode="4" d="M339 241 l-238 0 l236 347 l2 0 l0 -347 ZM419 241 l0 468 l-68 0 l-323 -461 l0 -82 l311 0 l0 -166 l80 0 l0 166 l96 0 l0 75 l-96 0 Z" /><glyph glyph-name="five" unicode="5" d="M470 622 l0 75 l-350 0 l-66 -368 l73 -4 q25 30 57.5 48.5 q32.5 18.5 74.5 18.5 q36 0 65.5 -12 q29.5 -12 50.5 -33.5 q21 -21.5 32.5 -51 q11.5 -29.5 11.5 -64.5 q0 -42 -12 -73.5 q-12 -31.5 -32.5 -52.5 q-20.5 -21 -48 -31.5 q-27.5 -10.5 -57.5 -10.5 q-32 0 -58.5 9.5 q-26.5 9.5 -46 27 q-19.5 17.5 -31 41 q-11.5 23.5 -13.5 50.5 l-85 0 q1 -48 19 -86 q18 -38 49 -63.5 q31 -25.5 71.5 -39 q40.5 -13.5 86.5 -13.5 q62 0 108.5 19.5 q46.5 19.5 77.5 52.5 q31 33 46.5 75.5 q15.5 42.5 15.5 87.5 q0 61 -18 106.5 q-18 45.5 -49 76 q-31 30.5 -73 45.5 q-42 15 -89 15 q-36 0 -72.5 -12.5 q-36.5 -12.5 -59.5 -38.5 l-2 2 l38 204 l286 0 Z" /><glyph glyph-name="six" unicode="6" d="M414 528 l85 0 q-8 88 -60 134.5 q-52 46.5 -140 46.5 q-76 0 -126 -32 q-50 -32 -80 -85 q-30 -53 -42.5 -121.5 q-12.5 -68.5 -12.5 -141.5 q0 -56 8.5 -116 q8.5 -60 34.5 -110 q26 -50 74 -82 q48 -32 127 -32 q67 0 112.5 22.5 q45.5 22.5 73 57 q27.5 34.5 39.5 76.5 q12 42 12 81 q0 49 -15 91 q-15 42 -42.5 73 q-27.5 31 -68 48.5 q-40.5 17.5 -91.5 17.5 q-58 0 -102.5 -22 q-44.5 -22 -74.5 -71 l-2 2 q1 41 8 88 q7 47 25.5 87.5 q18.5 40.5 51.5 67 q33 26.5 87 26.5 q51 0 82 -29 q31 -29 37 -77 ZM286 381 q36 0 63 -13 q27 -13 45 -34.5 q18 -21.5 26.5 -51 q8.5 -29.5 8.5 -62.5 q0 -31 -9.5 -59.5 q-9.5 -28.5 -27.5 -50.5 q-18 -22 -44.5 -34.5 q-26.5 -12.5 -61.5 -12.5 q-35 0 -62.5 12.5 q-27.5 12.5 -46 33.5 q-18.5 21 -28.5 50 q-10 29 -10 62 q0 33 9.5 62.5 q9.5 29.5 28.5 51 q19 21.5 46 34 q27 12.5 63 12.5 Z" /><glyph glyph-name="seven" unicode="7" d="M509 624 l0 73 l-459 0 l0 -80 l372 0 q-56 -59 -104.5 -129 q-48.5 -70 -85.5 -148.5 q-37 -78.5 -60.5 -164 q-23.5 -85.5 -29.5 -175.5 l95 0 q5 83 28 171 q23 88 59.5 171 q36.5 83 83.5 156 q47 73 101 126 Z" /><glyph glyph-name="eight" unicode="8" d="M155 525 q0 27 10 47 q10 20 26.5 34 q16.5 14 39.5 21 q23 7 48 7 q52 0 85.5 -27.5 q33.5 -27.5 33.5 -81.5 q0 -54 -33 -84 q-33 -30 -84 -30 q-26 0 -49 7 q-23 7 -40 21 q-17 14 -27 35.5 q-10 21.5 -10 50.5 ZM65 528 q0 -48 27 -88.5 q27 -40.5 72 -58.5 q-60 -21 -92 -67.5 q-32 -46.5 -32 -109.5 q0 -54 18.5 -94.5 q18.5 -40.5 51 -67.5 q32.5 -27 76.5 -40 q44 -13 95 -13 q49 0 92 14 q43 14 74.5 41.5 q31.5 27.5 50 67.5 q18.5 40 18.5 92 q0 66 -31 111.5 q-31 45.5 -95 65.5 q45 20 71.5 59.5 q26.5 39.5 26.5 87.5 q0 34 -12 66.5 q-12 32.5 -37.5 58 q-25.5 25.5 -66.5 41 q-41 15.5 -99 15.5 q-41 0 -78.5 -12 q-37.5 -12 -66.5 -35 q-29 -23 -46 -56.5 q-17 -33.5 -17 -77.5 ZM130 200 q0 31 11.5 56 q11.5 25 32 43 q20.5 18 48 27.5 q27.5 9.5 58.5 9.5 q30 0 56.5 -10.5 q26.5 -10.5 46.5 -28.5 q20 -18 31.5 -42.5 q11.5 -24.5 11.5 -53.5 q0 -30 -10.5 -55 q-10.5 -25 -30 -43.5 q-19.5 -18.5 -46 -29 q-26.5 -10.5 -58.5 -10.5 q-66 0 -108.5 36.5 q-42.5 36.5 -42.5 100.5 Z" /><glyph glyph-name="nine" unicode="9" d="M134 171 l-85 0 q8 -92 67 -137 q59 -45 148 -45 q129 0 187.5 98.5 q58.5 98.5 58.5 282.5 q0 101 -19.5 166.5 q-19.5 65.5 -52.5 103.5 q-33 38 -77 53.5 q-44 15.5 -94 15.5 q-51 0 -94 -17 q-43 -17 -74 -47.5 q-31 -30.5 -48 -73 q-17 -42.5 -17 -93.5 q0 -52 14.5 -96 q14.5 -44 43 -75 q28.5 -31 70.5 -48.5 q42 -17.5 96 -17.5 q52 0 96 26.5 q44 26.5 68 71.5 l2 -2 q-4 -139 -43 -206.5 q-39 -67.5 -117 -67.5 q-51 0 -88 28 q-37 28 -42 80 ZM409 472 q0 -31 -10 -59.5 q-10 -28.5 -29 -50 q-19 -21.5 -46 -34 q-27 -12.5 -60 -12.5 q-31 0 -56.5 12.5 q-25.5 12.5 -44 33.5 q-18.5 21 -29 48 q-10.5 27 -10.5 56 q0 33 7.5 63 q7.5 30 24 53.5 q16.5 23.5 43 37.5 q26.5 14 64.5 14 q36 0 63 -13 q27 -13 45.5 -35.5 q18.5 -22.5 28 -51.5 q9.5 -29 9.5 -62 Z" /><glyph glyph-name="colon" unicode=":" d="M194 406 l0 111 l-111 0 l0 -111 l111 0 ZM83 111 l0 -111 l111 0 l0 111 l-111 0 Z" /><glyph glyph-name="semicolon" unicode=";" d="M194 406 l0 111 l-111 0 l0 -111 l111 0 ZM83 111 l0 -111 l59 0 q1 -12 -1.5 -26 q-2.5 -14 -9.5 -27.5 q-7 -13.5 -18.5 -25 q-11.5 -11.5 -28.5 -17.5 l0 -50 q58 17 84.5 58 q26.5 41 25.5 98 l0 101 l-111 0 Z" /><glyph glyph-name="less" unicode="&lt;" d="M554 446 l0 68 l-508 -230 l0 -62 l508 -229 l0 67 l-425 193 l425 193 Z" /><glyph glyph-name="equal" unicode="=" d="M48 186 l0 -68 l504 0 l0 68 l-504 0 ZM552 320 l0 68 l-504 0 l0 -68 l504 0 Z" /><glyph glyph-name="greater" unicode="&gt;" d="M46 60 l0 -67 l508 229 l0 62 l-508 230 l0 -68 l425 -193 l-425 -193 Z" /><glyph glyph-name="question" unicode="?" d="M218 111 l0 -111 l111 0 l0 111 l-111 0 ZM55 491 l85 0 q0 35 8 65 q8 30 25.5 52 q17.5 22 43.5 35 q26 13 62 13 q54 0 85.5 -31 q31.5 -31 35.5 -86 q2 -37 -9 -63 q-11 -26 -29.5 -47.5 q-18.5 -21.5 -40 -41 q-21.5 -19.5 -41 -42.5 q-19.5 -23 -33 -52.5 q-13.5 -29.5 -15.5 -71.5 l0 -47 l85 0 l0 39 q0 26 7.5 46.5 q7.5 20.5 20 38 q12.5 17.5 28 33 q15.5 15.5 31.5 30.5 q16 16 31.5 33 q15.5 17 27.5 37 q12 20 19.5 44.5 q7.5 24.5 7.5 55.5 q0 48 -15.5 85 q-15.5 37 -43.5 62.5 q-28 25.5 -66.5 39 q-38.5 13.5 -85.5 13.5 q-52 0 -94 -18 q-42 -18 -71 -50.5 q-29 -32.5 -44.5 -76.5 q-15.5 -44 -14.5 -95 Z" /><glyph glyph-name="at" unicode="@" d="M534 270 l84 284 l-63 0 l-23 -63 q-17 45 -47 63.5 q-30 18.5 -65 18.5 q-53 0 -96.5 -25 q-43.5 -25 -74 -65 q-30.5 -40 -47.5 -91 q-17 -51 -17 -103 q0 -33 10.5 -62 q10.5 -29 29 -50 q18.5 -21 45 -33.5 q26.5 -12.5 58.5 -12.5 q37 0 69 20.5 q32 20.5 55 46.5 l3 0 q2 -33 20 -49 q18 -16 44 -16 q35 0 76 21 q41 21 76 59 q35 38 58.5 91.5 q23.5 53.5 23.5 118.5 q0 68 -27 124.5 q-27 56.5 -73.5 97 q-46.5 40.5 -108.5 63.5 q-62 23 -131 23 q-76 0 -143.5 -29 q-67.5 -29 -118 -79.5 q-50.5 -50.5 -80 -118 q-29.5 -67.5 -29.5 -144.5 q0 -80 29 -148.5 q29 -68.5 79.5 -119 q50.5 -50.5 119 -79.5 q68.5 -29 147.5 -29 q48 0 94 11.5 q46 11.5 86.5 34 q40.5 22.5 74.5 55 q34 32.5 58 74.5 l-63 0 q-43 -55 -109.5 -88 q-66.5 -33 -138.5 -33 q-63 0 -119 24.5 q-56 24.5 -98.5 67 q-42.5 42.5 -67 100.5 q-24.5 58 -24.5 125 q0 66 23.5 124 q23.5 58 64.5 102 q41 44 96.5 69.5 q55.5 25.5 119.5 25.5 q53 0 101.5 -18 q48.5 -18 86.5 -51.5 q38 -33.5 60.5 -81.5 q22.5 -48 22.5 -107 q0 -40 -13 -81 q-13 -41 -33 -74 q-20 -33 -44.5 -54 q-24.5 -21 -47.5 -21 q-24 0 -24 31 q0 11 3.5 24.5 q3.5 13.5 7.5 26.5 ZM420 505 q16 0 30.5 -8 q14.5 -8 26 -20.5 q11.5 -12.5 18 -29.5 q6.5 -17 6.5 -35 q0 -31 -12 -68 q-12 -37 -33 -69.5 q-21 -32.5 -49 -54 q-28 -21.5 -61 -21.5 q-38 0 -62 27.5 q-24 27.5 -24 69.5 q0 33 12 69.5 q12 36.5 33 67.5 q21 31 50.5 51.5 q29.5 20.5 64.5 20.5 Z" /><glyph glyph-name="A" unicode="A" d="M201 295 l121 333 l2 0 l119 -333 l-242 0 ZM272 714 l-278 -714 l97 0 l80 215 l302 0 l78 -215 l105 0 l-279 714 l-105 0 Z" /><glyph glyph-name="B" unicode="B" d="M173 407 l0 227 l190 0 q31 0 58.5 -3.5 q27.5 -3.5 48.5 -15.5 q21 -12 33 -34 q12 -22 12 -60 q0 -57 -35.5 -85.5 q-35.5 -28.5 -116.5 -28.5 l-190 0 ZM78 714 l0 -714 l345 0 q53 0 93.5 17.5 q40.5 17.5 68 46 q27.5 28.5 41.5 65.5 q14 37 14 76 q0 66 -35 112 q-35 46 -101 60 l0 2 q51 20 78.5 61.5 q27.5 41.5 27.5 98.5 q0 54 -24.5 91 q-24.5 37 -59.5 58 q-16 10 -38.5 15 q-22.5 5 -48.5 7.5 q-26 2.5 -52.5 3 q-26.5 0.5 -49.5 0.5 l-259 0 ZM173 80 l0 247 l217 0 q30 0 58 -5.5 q28 -5.5 49.5 -19 q21.5 -13.5 34.5 -36.5 q13 -23 13 -58 q0 -60 -35.5 -94 q-35.5 -34 -98.5 -34 l-238 0 Z" /><glyph glyph-name="C" unicode="C" d="M580 499 l95 0 q-8 57 -34 100.5 q-26 43.5 -65 72.5 q-39 29 -89 44 q-50 15 -106 15 q-82 0 -145.5 -29.5 q-63.5 -29.5 -106 -80.5 q-42.5 -51 -64.5 -119.5 q-22 -68.5 -22 -146.5 q0 -78 20.5 -146 q20.5 -68 61.5 -118 q41 -50 103 -78.5 q62 -28.5 145 -28.5 q137 0 216 75 q79 75 93 210 l-95 0 q-3 -44 -18 -82 q-15 -38 -41.5 -65.5 q-26.5 -27.5 -63 -43 q-36.5 -15.5 -83.5 -15.5 q-64 0 -110 24 q-46 24 -75.5 64.5 q-29.5 40.5 -43.5 95 q-14 54.5 -14 115.5 q0 56 14 108 q14 52 43.5 92.5 q29.5 40.5 75 64.5 q45.5 24 109.5 24 q75 0 129.5 -38 q54.5 -38 70.5 -114 Z" /><glyph glyph-name="D" unicode="D" d="M173 80 l0 554 l160 0 q66 0 111 -18.5 q45 -18.5 73.5 -54 q28.5 -35.5 41 -86 q12.5 -50.5 12.5 -114.5 q0 -66 -13.5 -112.5 q-13.5 -46.5 -34.5 -77.5 q-21 -31 -47.5 -49 q-26.5 -18 -53.5 -27.5 q-27 -9.5 -51 -12 q-24 -2.5 -40 -2.5 l-158 0 ZM78 714 l0 -714 l245 0 q89 0 154 25 q65 25 107 72.5 q42 47.5 62 117 q20 69.5 20 159.5 q0 172 -89 256 q-89 84 -254 84 l-245 0 Z" /><glyph glyph-name="E" unicode="E" d="M78 714 l0 -714 l496 0 l0 80 l-401 0 l0 247 l371 0 l0 80 l-371 0 l0 227 l398 0 l0 80 l-493 0 Z" /><glyph glyph-name="F" unicode="F" d="M78 714 l0 -714 l95 0 l0 327 l328 0 l0 80 l-328 0 l0 227 l374 0 l0 80 l-469 0 Z" /><glyph glyph-name="G" unicode="G" d="M612 89 l25 -89 l60 0 l0 376 l-313 0 l0 -80 l228 0 q2 -49 -13 -91.5 q-15 -42.5 -44.5 -74 q-29.5 -31.5 -72.5 -49.5 q-43 -18 -99 -18 q-60 0 -105.5 23.5 q-45.5 23.5 -76.5 63 q-31 39.5 -47 91 q-16 51.5 -16 107.5 q0 57 14 111.5 q14 54.5 43.5 97 q29.5 42.5 76 68.5 q46.5 26 111.5 26 q40 0 75.5 -9.5 q35.5 -9.5 63.5 -28.5 q28 -19 47 -48.5 q19 -29.5 26 -70.5 l95 0 q-10 63 -37.5 107.5 q-27.5 44.5 -68 73.5 q-40.5 29 -92 42.5 q-51.5 13.5 -109.5 13.5 q-85 0 -148.5 -31.5 q-63.5 -31.5 -106 -84.5 q-42.5 -53 -64 -123.5 q-21.5 -70.5 -21.5 -148.5 q0 -70 23 -135 q23 -65 67 -115 q44 -50 107 -79.5 q63 -29.5 143 -29.5 q63 0 125 24.5 q62 24.5 104 80.5 Z" /><glyph glyph-name="H" unicode="H" d="M78 714 l0 -714 l95 0 l0 327 l376 0 l0 -327 l95 0 l0 714 l-95 0 l0 -307 l-376 0 l0 307 l-95 0 Z" /><glyph glyph-name="I" unicode="I" d="M82 714 l0 -714 l95 0 l0 714 l-95 0 Z" /><glyph glyph-name="J" unicode="J" d="M441 178 l0 536 l-95 0 l0 -522 q0 -59 -24.5 -94 q-24.5 -35 -89.5 -35 q-35 0 -57.5 10.5 q-22.5 10.5 -35 29.5 q-12.5 19 -17.5 45 q-5 26 -5 57 l0 30 l-95 0 l0 -44 q0 -102 54 -154.5 q54 -52.5 154 -52.5 q60 0 100.5 16.5 q40.5 16.5 65 44 q24.5 27.5 35 62.5 q10.5 35 10.5 71 Z" /><glyph glyph-name="K" unicode="K" d="M78 714 l0 -714 l95 0 l0 250 l119 111 l258 -361 l120 0 l-313 426 l301 288 l-123 0 l-362 -356 l0 356 l-95 0 Z" /><glyph glyph-name="L" unicode="L" d="M78 714 l0 -714 l473 0 l0 80 l-378 0 l0 634 l-95 0 Z" /><glyph glyph-name="M" unicode="M" d="M80 714 l0 -714 l90 0 l0 594 l2 0 l223 -594 l81 0 l223 594 l2 0 l0 -594 l90 0 l0 714 l-130 0 l-226 -600 l-225 600 l-130 0 Z" /><glyph glyph-name="N" unicode="N" d="M77 714 l0 -714 l90 0 l0 573 l2 0 l373 -573 l104 0 l0 714 l-90 0 l0 -579 l-2 0 l-376 579 l-101 0 Z" /><glyph glyph-name="O" unicode="O" d="M133 357 q0 54 14 106.5 q14 52.5 44 94.5 q30 42 77 67.5 q47 25.5 112 25.5 q65 0 112 -25.5 q47 -25.5 77 -67.5 q30 -42 44 -94.5 q14 -52.5 14 -106.5 q0 -54 -14 -106.5 q-14 -52.5 -44 -94.5 q-30 -42 -77 -67.5 q-47 -25.5 -112 -25.5 q-65 0 -112 25.5 q-47 25.5 -77 67.5 q-30 42 -44 94.5 q-14 52.5 -14 106.5 ZM38 357 q0 -73 21.5 -140.5 q21.5 -67.5 64.5 -119.5 q43 -52 107 -82.5 q64 -30.5 149 -30.5 q85 0 149 30.5 q64 30.5 107 82.5 q43 52 64.5 119.5 q21.5 67.5 21.5 140.5 q0 73 -21.5 140.5 q-21.5 67.5 -64.5 119.5 q-43 52 -107 83 q-64 31 -149 31 q-85 0 -149 -31 q-64 -31 -107 -83 q-43 -52 -64.5 -119.5 q-21.5 -67.5 -21.5 -140.5 Z" /><glyph glyph-name="P" unicode="P" d="M173 372 l0 262 l186 0 q81 0 118.5 -33.5 q37.5 -33.5 37.5 -97.5 q0 -64 -37.5 -98 q-37.5 -34 -118.5 -33 l-186 0 ZM78 714 l0 -714 l95 0 l0 292 l218 0 q108 -1 163.5 55 q55.5 56 55.5 156 q0 100 -55.5 155.5 q-55.5 55.5 -163.5 55.5 l-313 0 Z" /><glyph glyph-name="Q" unicode="Q" d="M450 204 l-50 -58 l79 -63 q-48 -20 -99 -20 q-65 0 -112 25.5 q-47 25.5 -77 67.5 q-30 42 -44 94.5 q-14 52.5 -14 106.5 q0 54 14 106.5 q14 52.5 44 94.5 q30 42 77 67.5 q47 25.5 112 25.5 q65 0 112 -25.5 q47 -25.5 77 -67.5 q30 -42 44 -94.5 q14 -52.5 14 -106.5 q0 -66 -20 -126.5 q-20 -60.5 -62 -102.5 l-95 76 ZM660 -61 l48 60 l-94 74 q54 54 81 128 q27 74 27 156 q0 73 -21.5 140.5 q-21.5 67.5 -64.5 119.5 q-43 52 -107 83 q-64 31 -149 31 q-85 0 -149 -31 q-64 -31 -107 -83 q-43 -52 -64.5 -119.5 q-21.5 -67.5 -21.5 -140.5 q0 -73 21.5 -140.5 q21.5 -67.5 64.5 -119.5 q43 -52 107 -82.5 q64 -30.5 149 -30.5 q99 0 171 42 l109 -87 Z" /><glyph glyph-name="R" unicode="R" d="M78 714 l0 -714 l95 0 l0 305 l232 0 q35 0 56 -10.5 q21 -10.5 34 -28 q13 -17.5 19 -41 q6 -23.5 10 -49.5 q5 -26 6 -53 q1 -27 2 -50.5 q1 -23.5 4.5 -42.5 q3.5 -19 13.5 -30 l106 0 q-15 18 -22.5 41.5 q-7.5 23.5 -11.5 49.5 q-4 26 -5 53 q-1 27 -3 53 q-3 26 -8.5 50 q-5.5 24 -17 43.5 q-11.5 19.5 -31 33.5 q-19.5 14 -50.5 20 l0 2 q65 18 94.5 67 q29.5 49 29.5 114 q0 87 -57.5 137 q-57.5 50 -159.5 50 l-336 0 ZM371 385 l-198 0 l0 249 l236 0 q67 0 97 -34 q30 -34 30 -88 q0 -39 -13.5 -63.5 q-13.5 -24.5 -36 -39 q-22.5 -14.5 -52.5 -19.5 q-30 -5 -63 -5 Z" /><glyph glyph-name="S" unicode="S" d="M491 505 l90 0 q-2 59 -22.5 101.5 q-20.5 42.5 -56 70.5 q-35.5 28 -82.5 41 q-47 13 -102 13 q-49 0 -95.5 -12.5 q-46.5 -12.5 -83 -38 q-36.5 -25.5 -58.5 -65 q-22 -39.5 -22 -93.5 q0 -49 19.5 -81.5 q19.5 -32.5 52 -53 q32.5 -20.5 73.5 -33 q41 -12.5 83.5 -22 q42.5 -9.5 83.5 -18.5 q41 -9 73.5 -23.5 q32.5 -14.5 52 -37.5 q19.5 -23 19.5 -60 q0 -39 -16 -64 q-16 -25 -42 -39.5 q-26 -14.5 -58.5 -20.5 q-32.5 -6 -64.5 -6 q-40 0 -78 10 q-38 10 -66.5 31 q-28.5 21 -46 53.5 q-17.5 32.5 -17.5 77.5 l-90 0 q0 -65 23.5 -112.5 q23.5 -47.5 64 -78 q40.5 -30.5 94 -45.5 q53.5 -15 113.5 -15 q49 0 98.5 11.5 q49.5 11.5 89.5 37 q40 25.5 65.5 66 q25.5 40.5 25.5 97.5 q0 53 -19.5 88 q-19.5 35 -52 58 q-32.5 23 -73.5 36.5 q-41 13.5 -83.5 23.5 q-42.5 10 -83.5 18.5 q-41 8.5 -73.5 21.5 q-32.5 13 -52 33.5 q-19.5 20.5 -19.5 53.5 q0 35 13.5 58.5 q13.5 23.5 36 37.5 q22.5 14 51.5 20 q29 6 59 6 q74 0 121.5 -34.5 q47.5 -34.5 55.5 -111.5 Z" /><glyph glyph-name="T" unicode="T" d="M240 634 l0 -634 l95 0 l0 634 l238 0 l0 80 l-571 0 l0 -80 l238 0 Z" /><glyph glyph-name="U" unicode="U" d="M648 258 l0 456 l-95 0 l0 -456 q0 -96 -47.5 -145.5 q-47.5 -49.5 -138.5 -49.5 q-96 0 -147 49.5 q-51 49.5 -51 145.5 l0 456 l-95 0 l0 -456 q0 -143 77.5 -208.5 q77.5 -65.5 215.5 -65.5 q135 0 208 68.5 q73 68.5 73 205.5 Z" /><glyph glyph-name="V" unicode="V" d="M359 0 l254 714 l-99 0 l-206 -619 l-2 0 l-204 619 l-102 0 l251 -714 l108 0 Z" /><glyph glyph-name="W" unicode="W" d="M723 0 l191 714 l-95 0 l-145 -594 l-2 0 l-158 594 l-103 0 l-160 -594 l-2 0 l-140 594 l-97 0 l183 -714 l99 0 l165 600 l2 0 l163 -600 l99 0 Z" /><glyph glyph-name="X" unicode="X" d="M248 367 l-248 -367 l106 0 l198 295 l192 -295 l116 0 l-251 367 l236 347 l-106 0 l-186 -279 l-178 279 l-114 0 l235 -347 Z" /><glyph glyph-name="Y" unicode="Y" d="M373 292 l273 422 l-108 0 l-209 -340 l-214 340 l-113 0 l276 -422 l0 -292 l95 0 l0 292 Z" /><glyph glyph-name="Z" unicode="Z" d="M22 80 l0 -80 l568 0 l0 80 l-455 0 l443 554 l0 80 l-522 0 l0 -80 l410 0 l-444 -554 Z" /><glyph glyph-name="bracketleft" unicode="[" d="M259 663 l0 68 l-187 0 l0 -928 l187 0 l0 68 l-107 0 l0 792 l107 0 Z" /><glyph glyph-name="backslash" unicode="\" d="M351 -16 l-296 747 l-72 0 l295 -747 l73 0 Z" /><glyph glyph-name="bracketright" unicode="]" d="M0 -129 l0 -68 l187 0 l0 928 l-187 0 l0 -68 l107 0 l0 -792 l-107 0 Z" /><glyph glyph-name="asciicircum" unicode="^" d="M268 697 l-218 -433 l71 0 l178 360 l181 -360 l70 0 l-218 433 l-64 0 Z" /><glyph glyph-name="underscore" unicode="_" d="M0 -74 l0 -50 l500 0 l0 50 l-500 0 Z" /><glyph glyph-name="grave" unicode="`" d="M-22 731 l130 -143 l64 0 l-86 143 l-108 0 Z" /><glyph glyph-name="a" unicode="a" d="M522 2 l0 66 q-15 -5 -26 -5 q-20 0 -23.5 14 q-3.5 14 -3.5 44 l0 266 q0 45 -17 73 q-17 28 -45 43.5 q-28 15.5 -62.5 20.5 q-34.5 5 -69.5 5 q-43 0 -82 -9 q-39 -9 -69 -29.5 q-30 -20.5 -48 -53.5 q-18 -33 -20 -81 l85 0 q3 57 39 77.5 q36 20.5 90 20.5 q20 0 40.5 -3 q20.5 -3 37 -12 q16.5 -9 27 -26 q10.5 -17 10.5 -45 q0 -24 -14 -36.5 q-14 -12.5 -38 -19 q-24 -6.5 -55.5 -10 q-31.5 -3.5 -66.5 -10.5 q-33 -6 -64.5 -15 q-31.5 -9 -56 -26.5 q-24.5 -17.5 -39.5 -45.5 q-15 -28 -15 -72 q0 -39 13.5 -66.5 q13.5 -27.5 37 -45 q23.5 -17.5 54.5 -25 q31 -7.5 66 -7.5 q54 0 100.5 18.5 q46.5 18.5 81.5 60.5 q0 -42 19.5 -60.5 q19.5 -18.5 52.5 -18.5 q39 0 61 13 ZM384 267 l0 -87 q0 -18 -9 -38.5 q-9 -20.5 -28 -38 q-19 -17.5 -49 -29 q-30 -11.5 -72 -11.5 q-19 0 -37.5 4 q-18.5 4 -32 13 q-13.5 9 -22 23.5 q-8.5 14.5 -8.5 35.5 q0 32 14.5 50.5 q14.5 18.5 37.5 28.5 q23 10 52 14.5 q29 4.5 57.5 8 q28.5 3.5 54.5 9 q26 5.5 42 17.5 Z" /><glyph glyph-name="b" unicode="b" d="M67 714 l0 -714 l85 0 l0 69 l2 0 q14 -23 34.5 -38.5 q20.5 -15.5 43.5 -24.5 q23 -9 46.5 -13 q23.5 -4 42.5 -4 q59 0 103.5 21 q44.5 21 74 57.5 q29.5 36.5 44 85.5 q14.5 49 14.5 104 q0 55 -15 104 q-15 49 -44.5 86.5 q-29.5 37.5 -74 59.5 q-44.5 22 -104.5 22 q-54 0 -99 -19.5 q-45 -19.5 -66 -62.5 l-2 0 l0 267 l-85 0 ZM467 263 q0 -38 -8 -74 q-8 -36 -26 -64 q-18 -28 -47.5 -45 q-29.5 -17 -73.5 -17 q-44 0 -75 16.5 q-31 16.5 -50.5 43.5 q-19.5 27 -28.5 62.5 q-9 35.5 -9 73.5 q0 36 8.5 71 q8.5 35 27.5 62.5 q19 27.5 49 44.5 q30 17 73 17 q41 0 71.5 -16 q30.5 -16 50 -43 q19.5 -27 29 -61.5 q9.5 -34.5 9.5 -70.5 Z" /><glyph glyph-name="c" unicode="c" d="M415 351 l88 0 q-5 46 -24 79.5 q-19 33.5 -48.5 55.5 q-29.5 22 -68 32.5 q-38.5 10.5 -82.5 10.5 q-61 0 -107 -21.5 q-46 -21.5 -76.5 -59 q-30.5 -37.5 -45.5 -88 q-15 -50.5 -15 -108.5 q0 -58 15.5 -106.5 q15.5 -48.5 46 -83.5 q30.5 -35 76 -54 q45.5 -19 104.5 -19 q99 0 156.5 52 q57.5 52 71.5 148 l-87 0 q-8 -60 -43.5 -93 q-35.5 -33 -98.5 -33 q-40 0 -69 16 q-29 16 -47 42.5 q-18 26.5 -26.5 60.5 q-8.5 34 -8.5 70 q0 39 8 75.5 q8 36.5 26.5 64.5 q18.5 28 49.5 45 q31 17 77 17 q54 0 86 -27 q32 -27 42 -76 Z" /><glyph glyph-name="d" unicode="d" d="M126 254 q0 38 8 74 q8 36 26 64 q18 28 48 45 q30 17 73 17 q44 0 75 -16.5 q31 -16.5 50.5 -43.5 q19.5 -27 28.5 -62.5 q9 -35.5 9 -73.5 q0 -36 -8.5 -71 q-8.5 -35 -27.5 -62.5 q-19 -27.5 -49 -44.5 q-30 -17 -73 -17 q-41 0 -71.5 16 q-30.5 16 -50 43 q-19.5 27 -29 61.5 q-9.5 34.5 -9.5 70.5 ZM526 0 l0 714 l-85 0 l0 -266 l-2 0 q-14 23 -34.5 38.5 q-20.5 15.5 -43.5 25 q-23 9.5 -46 13.5 q-23 4 -43 4 q-59 0 -103.5 -21.5 q-44.5 -21.5 -74 -58 q-29.5 -36.5 -44 -85.5 q-14.5 -49 -14.5 -104 q0 -55 15 -104 q15 -49 44.5 -86 q29.5 -37 74 -59 q44.5 -22 104.5 -22 q54 0 99 19 q45 19 66 62 l2 0 l0 -70 l85 0 Z" /><glyph glyph-name="e" unicode="e" d="M423 308 l-297 0 q2 30 13 56.5 q11 26.5 30 46.5 q19 20 45.5 31.5 q26.5 11.5 59.5 11.5 q32 0 58.5 -11.5 q26.5 -11.5 46 -31 q19.5 -19.5 31 -46.5 q11.5 -27 13.5 -57 ZM505 164 l-84 0 q-11 -51 -45.5 -76 q-34.5 -25 -88.5 -25 q-42 0 -73 14 q-31 14 -51 37.5 q-20 23.5 -29 54 q-9 30.5 -8 64.5 l387 0 q2 47 -8.5 99 q-10.5 52 -38 96 q-27.5 44 -73 72.5 q-45.5 28.5 -114.5 28.5 q-53 0 -97.5 -20 q-44.5 -20 -77 -56 q-32.5 -36 -50.5 -85 q-18 -49 -18 -108 q2 -59 17.5 -109 q15.5 -50 46.5 -86 q31 -36 76.5 -56 q45.5 -20 107.5 -20 q88 0 146 44 q58 44 75 131 Z" /><glyph glyph-name="f" unicode="f" d="M99 442 l0 -442 l85 0 l0 442 l100 0 l0 75 l-100 0 l0 72 q0 34 17 46 q17 12 48 12 q11 0 24 -1.5 q13 -1.5 24 -5.5 l0 74 q-12 4 -27.5 6 q-15.5 2 -27.5 2 q-70 0 -106.5 -32.5 q-36.5 -32.5 -36.5 -95.5 l0 -77 l-87 0 l0 -75 l87 0 Z" /><glyph glyph-name="g" unicode="g" d="M510 44 l0 473 l-80 0 l0 -74 l-1 0 q-23 43 -64 64.5 q-41 21.5 -90 21.5 q-67 0 -113 -25.5 q-46 -25.5 -74 -65 q-28 -39.5 -40 -88 q-12 -48.5 -12 -94.5 q0 -53 14.5 -100.5 q14.5 -47.5 43.5 -83 q29 -35.5 72 -56.5 q43 -21 101 -21 q50 0 94.5 22.5 q44.5 22.5 66.5 70.5 l2 0 l0 -34 q0 -43 -8.5 -79 q-8.5 -36 -27.5 -61.5 q-19 -25.5 -48 -40 q-29 -14.5 -71 -14.5 q-21 0 -44 4.5 q-23 4.5 -42.5 14.5 q-19.5 10 -33 26 q-13.5 16 -14.5 39 l-85 0 q2 -42 22 -71 q20 -29 50.5 -47 q30.5 -18 68 -26 q37.5 -8 73.5 -8 q124 0 182 63 q58 63 58 190 ZM272 69 q-42 0 -70 17.5 q-28 17.5 -45 46 q-17 28.5 -24 63.5 q-7 35 -7 70 q0 37 8.5 71 q8.5 34 27 60 q18.5 26 47.5 41.5 q29 15.5 70 15.5 q40 0 68 -16 q28 -16 45.5 -42.5 q17.5 -26.5 25.5 -59.5 q8 -33 8 -67 q0 -36 -8.5 -72 q-8.5 -36 -26.5 -64.5 q-18 -28.5 -47.5 -46 q-29.5 -17.5 -71.5 -17.5 Z" /><glyph glyph-name="h" unicode="h" d="M64 714 l0 -714 l85 0 l0 292 q0 35 9.5 64.5 q9.5 29.5 28.5 51.5 q19 22 47.5 34 q28.5 12 67.5 12 q49 0 77 -28 q28 -28 28 -76 l0 -350 l85 0 l0 340 q0 42 -8.5 76.5 q-8.5 34.5 -29.5 59.5 q-21 25 -55 39 q-34 14 -85 14 q-23 0 -47.5 -5 q-24.5 -5 -47 -15.5 q-22.5 -10.5 -40.5 -27 q-18 -16.5 -28 -40.5 l-2 0 l0 273 l-85 0 Z" /><glyph glyph-name="i" unicode="i" d="M154 610 l0 104 l-85 0 l0 -104 l85 0 ZM69 517 l0 -517 l85 0 l0 517 l-85 0 Z" /><glyph glyph-name="j" unicode="j" d="M154 610 l0 104 l-85 0 l0 -104 l85 0 ZM154 -65 l0 582 l-85 0 l0 -568 q0 -40 -10 -55.5 q-10 -15.5 -38 -15.5 l-18 0 q-4 0 -7.5 0.5 q-3.5 0.5 -8.5 1.5 l0 -73 q20 -4 43 -4 q57 0 90.5 31.5 q33.5 31.5 33.5 100.5 Z" /><glyph glyph-name="k" unicode="k" d="M69 714 l0 -714 l85 0 l0 196 l80 74 l177 -270 l108 0 l-220 329 l205 188 l-114 0 l-236 -226 l0 423 l-85 0 Z" /><glyph glyph-name="l" unicode="l" d="M69 714 l0 -714 l85 0 l0 714 l-85 0 Z" /><glyph glyph-name="m" unicode="m" d="M64 517 l0 -517 l85 0 l0 322 q0 15 7.5 37.5 q7.5 22.5 24 43.5 q16.5 21 43 36 q26.5 15 63.5 15 q29 0 47.5 -8.5 q18.5 -8.5 29.5 -24 q11 -15.5 15.5 -36.5 q4.5 -21 4.5 -46 l0 -339 l85 0 l0 322 q0 60 36 96 q36 36 99 36 q31 0 50.5 -9 q19.5 -9 30.5 -24.5 q11 -15.5 15 -36.5 q4 -21 4 -45 l0 -339 l85 0 l0 379 q0 40 -12.5 68.5 q-12.5 28.5 -35 46.5 q-22.5 18 -54 26.5 q-31.5 8.5 -70.5 8.5 q-51 0 -93.5 -23 q-42.5 -23 -68.5 -65 q-16 48 -55 68 q-39 20 -87 20 q-109 0 -167 -88 l-2 0 l0 76 l-80 0 Z" /><glyph glyph-name="n" unicode="n" d="M64 517 l0 -517 l85 0 l0 292 q0 35 9.5 64.5 q9.5 29.5 28.5 51.5 q19 22 47.5 34 q28.5 12 67.5 12 q49 0 77 -28 q28 -28 28 -76 l0 -350 l85 0 l0 340 q0 42 -8.5 76.5 q-8.5 34.5 -29.5 59.5 q-21 25 -55 39 q-34 14 -85 14 q-115 0 -168 -94 l-2 0 l0 82 l-80 0 Z" /><glyph glyph-name="o" unicode="o" d="M126 258 q0 47 12.5 83.5 q12.5 36.5 34.5 61.5 q22 25 51.5 38 q29.5 13 62.5 13 q33 0 62.5 -13 q29.5 -13 51.5 -38 q22 -25 34.5 -61.5 q12.5 -36.5 12.5 -83.5 q0 -47 -12.5 -83.5 q-12.5 -36.5 -34.5 -61 q-22 -24.5 -51.5 -37.5 q-29.5 -13 -62.5 -13 q-33 0 -62.5 13 q-29.5 13 -51.5 37.5 q-22 24.5 -34.5 61 q-12.5 36.5 -12.5 83.5 ZM36 258 q0 -57 16 -106 q16 -49 48 -85.5 q32 -36.5 79 -57 q47 -20.5 108 -20.5 q62 0 108.5 20.5 q46.5 20.5 78.5 57 q32 36.5 48 85.5 q16 49 16 106 q0 57 -16 106.5 q-16 49.5 -48 86 q-32 36.5 -78.5 57.5 q-46.5 21 -108.5 21 q-61 0 -108 -21 q-47 -21 -79 -57.5 q-32 -36.5 -48 -86 q-16 -49.5 -16 -106.5 Z" /><glyph glyph-name="p" unicode="p" d="M67 517 l0 -714 l85 0 l0 266 l2 0 q14 -23 34.5 -38.5 q20.5 -15.5 43.5 -24.5 q23 -9 46.5 -13 q23.5 -4 42.5 -4 q59 0 103.5 21 q44.5 21 74 57.5 q29.5 36.5 44 85.5 q14.5 49 14.5 104 q0 55 -15 104 q-15 49 -44.5 86.5 q-29.5 37.5 -74 59.5 q-44.5 22 -104.5 22 q-54 0 -99 -19.5 q-45 -19.5 -66 -62.5 l-2 0 l0 70 l-85 0 ZM467 263 q0 -38 -8 -74 q-8 -36 -26 -64 q-18 -28 -47.5 -45 q-29.5 -17 -73.5 -17 q-44 0 -75 16.5 q-31 16.5 -50.5 43.5 q-19.5 27 -28.5 62.5 q-9 35.5 -9 73.5 q0 36 8.5 71 q8.5 35 27.5 62.5 q19 27.5 49 44.5 q30 17 73 17 q41 0 71.5 -16 q30.5 -16 50 -43 q19.5 -27 29 -61.5 q9.5 -34.5 9.5 -70.5 Z" /><glyph glyph-name="q" unicode="q" d="M126 254 q0 38 8 74 q8 36 26 64 q18 28 48 45 q30 17 73 17 q44 0 75 -16.5 q31 -16.5 50.5 -43.5 q19.5 -27 28.5 -62.5 q9 -35.5 9 -73.5 q0 -36 -8.5 -71 q-8.5 -35 -27.5 -62.5 q-19 -27.5 -49 -44.5 q-30 -17 -73 -17 q-41 0 -71.5 16 q-30.5 16 -50 43 q-19.5 27 -29 61.5 q-9.5 34.5 -9.5 70.5 ZM526 -197 l0 714 l-85 0 l0 -69 l-2 0 q-14 23 -34.5 38.5 q-20.5 15.5 -43.5 25 q-23 9.5 -46 13.5 q-23 4 -43 4 q-59 0 -103.5 -21.5 q-44.5 -21.5 -74 -58 q-29.5 -36.5 -44 -85.5 q-14.5 -49 -14.5 -104 q0 -55 15 -104 q15 -49 44.5 -86 q29.5 -37 74 -59 q44.5 -22 104.5 -22 q54 0 99 19 q45 19 66 62 l2 0 l0 -267 l85 0 Z" /><glyph glyph-name="r" unicode="r" d="M61 517 l0 -517 l85 0 l0 230 q0 50 10 88.5 q10 38.5 32 65.5 q22 27 58 41 q36 14 87 14 l0 90 q-69 2 -114 -28 q-45 -30 -76 -93 l-2 0 l0 109 l-80 0 Z" /><glyph glyph-name="s" unicode="s" d="M116 163 l-85 0 q2 -48 20 -81.5 q18 -33.5 48 -54 q30 -20.5 69 -29.5 q39 -9 82 -9 q39 0 78.5 7.5 q39.5 7.5 71 26.5 q31.5 19 51 50 q19.5 31 19.5 78 q0 37 -14.5 62 q-14.5 25 -38 41.5 q-23.5 16.5 -54 26.5 q-30.5 10 -62.5 17 q-30 7 -60 13.5 q-30 6.5 -54 16 q-24 9.5 -39.5 24 q-15.5 14.5 -15.5 36.5 q0 20 10 32.5 q10 12.5 26 20 q16 7.5 35.5 10.5 q19.5 3 38.5 3 q21 0 41.5 -4.5 q20.5 -4.5 37.5 -14.5 q17 -10 28 -26.5 q11 -16.5 13 -41.5 l85 0 q-3 47 -20 78.5 q-17 31.5 -45.5 50 q-28.5 18.5 -65.5 26 q-37 7.5 -81 7.5 q-34 0 -68.5 -8.5 q-34.5 -8.5 -62 -26 q-27.5 -17.5 -45 -45.5 q-17.5 -28 -17.5 -67 q0 -50 25 -78 q25 -28 62.5 -43.5 q37.5 -15.5 81.5 -24 q44 -8.5 81.5 -19 q37.5 -10.5 62.5 -27.5 q25 -17 25 -50 q0 -24 -12 -39.5 q-12 -15.5 -30.5 -23.5 q-18.5 -8 -40.5 -11 q-22 -3 -42 -3 q-26 0 -50.5 5 q-24.5 5 -44 16.5 q-19.5 11.5 -31.5 31 q-12 19.5 -13 47.5 Z" /><glyph glyph-name="t" unicode="t" d="M182 517 l0 155 l-85 0 l0 -155 l-88 0 l0 -75 l88 0 l0 -329 q0 -36 7 -58 q7 -22 21.5 -34 q14.5 -12 38 -16.5 q23.5 -4.5 56.5 -4.5 l65 0 l0 75 l-39 0 q-20 0 -32.5 1.5 q-12.5 1.5 -19.5 6.5 q-7 5 -9.5 14 q-2.5 9 -2.5 24 l0 321 l103 0 l0 75 l-103 0 Z" /><glyph glyph-name="u" unicode="u" d="M492 0 l0 517 l-85 0 l0 -292 q0 -35 -9.5 -64.5 q-9.5 -29.5 -28.5 -51.5 q-19 -22 -47.5 -34 q-28.5 -12 -67.5 -12 q-49 0 -77 28 q-28 28 -28 76 l0 350 l-85 0 l0 -340 q0 -42 8.5 -76.5 q8.5 -34.5 29.5 -59.5 q21 -25 55 -38.5 q34 -13.5 85 -13.5 q57 0 99 22.5 q42 22.5 69 70.5 l2 0 l0 -82 l80 0 Z" /><glyph glyph-name="v" unicode="v" d="M297 0 l189 517 l-89 0 l-141 -431 l-2 0 l-145 431 l-95 0 l192 -517 l91 0 Z" /><glyph glyph-name="w" unicode="w" d="M576 0 l165 517 l-88 0 l-116 -423 l-2 0 l-108 423 l-93 0 l-104 -423 l-2 0 l-117 423 l-94 0 l166 -517 l92 0 l104 411 l2 0 l105 -411 l90 0 Z" /><glyph glyph-name="x" unicode="x" d="M203 272 l-194 -272 l103 0 l144 214 l144 -214 l109 0 l-200 279 l178 238 l-102 0 l-129 -181 l-124 181 l-109 0 l180 -245 Z" /><glyph glyph-name="y" unicode="y" d="M267 -68 l225 585 l-90 0 l-145 -423 l-2 0 l-151 423 l-96 0 l205 -514 l-35 -87 q-12 -23 -28 -35 q-16 -12 -42 -12 q-13 0 -25.5 4 q-12.5 4 -24.5 8 l0 -78 q14 -5 29 -7 q15 -2 30 -2 q29 0 50 7.5 q21 7.5 38.5 24 q17.5 16.5 32 42.5 q14.5 26 29.5 64 Z" /><glyph glyph-name="z" unicode="z" d="M22 65 l0 -65 l436 0 l0 75 l-330 0 l316 384 l0 58 l-402 0 l0 -75 l292 0 l-312 -377 Z" /><glyph glyph-name="braceleft" unicode="{" d="M309 671 l0 60 l-70 0 q-19 0 -38 -8.5 q-19 -8.5 -34.5 -25 q-15.5 -16.5 -25.5 -41 q-10 -24.5 -10 -56.5 l0 -182 q0 -26 -7 -48 q-7 -22 -18.5 -37.5 q-11.5 -15.5 -26.5 -24 q-15 -8.5 -31 -8.5 l0 -68 q16 0 31 -8 q15 -8 26.5 -23 q11.5 -15 18.5 -37 q7 -22 7 -49 l0 -181 q0 -32 10 -56.5 q10 -24.5 25.5 -41 q15.5 -16.5 34.5 -25 q19 -8.5 38 -8.5 l70 0 l0 60 l-50 0 q-15 0 -24 7.5 q-9 7.5 -14.5 20 q-5.5 12.5 -7.5 28 q-2 15.5 -2 30.5 l0 182 q0 38 -10.5 63 q-10.5 25 -24.5 40.5 q-14 15.5 -28.5 22.5 q-14.5 7 -23.5 8 l0 3 q9 2 23.5 10 q14.5 8 28.5 24 q14 16 24.5 40.5 q10.5 24.5 10.5 59.5 l0 183 q0 16 2 31.5 q2 15.5 7.5 27.5 q5.5 12 14.5 19.5 q9 7.5 24 7.5 l50 0 Z" /><glyph glyph-name="bar" unicode="|" d="M77 786 l0 -999 l68 0 l0 999 l-68 0 Z" /><glyph glyph-name="braceright" unicode="}" d="M24 -137 l0 -60 l70 0 q19 0 38 8.5 q19 8.5 34.5 25 q15.5 16.5 25.5 41 q10 24.5 10 56.5 l0 181 q0 26 7 47.5 q7 21.5 18.5 37 q11.5 15.5 26.5 24 q15 8.5 31 8.5 l0 68 q-16 0 -31 8 q-15 8 -26.5 23.5 q-11.5 15.5 -18.5 37.5 q-7 22 -7 49 l0 182 q0 32 -10 56.5 q-10 24.5 -25.5 41 q-15.5 16.5 -34.5 25 q-19 8.5 -38 8.5 l-70 0 l0 -60 l50 0 q15 0 24 -7.5 q9 -7.5 14.5 -20 q5.5 -12.5 7.5 -28 q2 -15.5 2 -32.5 l0 -181 q0 -38 10.5 -63 q10.5 -25 24.5 -40.5 q14 -15.5 28.5 -22.5 q14.5 -7 23.5 -8 l0 -3 q-9 -2 -23.5 -10 q-14.5 -8 -28.5 -24 q-14 -16 -24.5 -40.5 q-10.5 -24.5 -10.5 -59.5 l0 -182 q0 -16 -2 -31.5 q-2 -15.5 -7.5 -27.5 q-5.5 -12 -14.5 -19.5 q-9 -7.5 -24 -7.5 l-50 0 Z" /><glyph glyph-name="asciitilde" unicode="~" d="M531 269 l-36 50 q-9 -13 -18 -26.5 q-9 -13.5 -19.5 -24.5 q-10.5 -11 -23 -18 q-12.5 -7 -27.5 -7 q-20 0 -47 14 q-27 14 -55 26 q-29 13 -57 22.5 q-28 9.5 -54 9.5 q-25 0 -44.5 -7.5 q-19.5 -7.5 -35 -19.5 q-15.5 -12 -26.5 -27.5 q-11 -15.5 -19 -31.5 l36 -50 q6 13 13.5 26.5 q7.5 13.5 18 24.5 q10.5 11 23.5 18 q13 7 29 7 q35 0 63 -12.5 q28 -12.5 52 -26.5 q25 -14 49.5 -23.5 q24.5 -9.5 52.5 -9.5 q23 0 41.5 7.5 q18.5 7.5 33.5 19.5 q15 12 27 27.5 q12 15.5 23 31.5 Z" /><glyph glyph-name="nonbreakingspace" unicode=" " d="" /><glyph glyph-name="exclamdown" unicode="¡" d="M185 406 l0 111 l-111 0 l0 -111 l111 0 ZM82 22 l0 -219 l95 0 l0 219 l-25 311 l-45 0 l-25 -311 Z" /><glyph glyph-name="cent" unicode="¢" d="M272 -11 l0 -104 l39 0 l0 104 q47 0 83.5 17 q36.5 17 62.5 45.5 q26 28.5 41 64.5 q15 36 19 73 l-85 0 q-8 -51 -37.5 -86 q-29.5 -35 -83.5 -40 l0 391 q48 -2 77 -29.5 q29 -27.5 39 -73.5 l87 0 q-6 45 -23 78.5 q-17 33.5 -43.5 55 q-26.5 21.5 -61 32.5 q-34.5 11 -75.5 12 l0 95 l-39 0 l0 -95 q-56 -4 -98.5 -27.5 q-42.5 -23.5 -71 -61 q-28.5 -37.5 -42.5 -86 q-14 -48.5 -14 -102.5 q0 -55 15 -102.5 q15 -47.5 43.5 -82.5 q28.5 -35 70.5 -55.5 q42 -20.5 97 -22.5 ZM272 454 l0 -391 q-36 3 -62 20 q-26 17 -42.5 43 q-16.5 26 -24 59 q-7.5 33 -7.5 67 q0 37 7 71.5 q7 34.5 22.5 62 q15.5 27.5 41.5 45.5 q26 18 65 23 Z" /><glyph glyph-name="sterling" unicode="£" d="M47 372 l0 -45 l85 0 q9 -20 17 -45 q8 -25 8 -48 q0 -29 -9 -55 q-9 -26 -24.5 -49 q-15.5 -23 -35.5 -42 q-20 -19 -41 -33 l47 -65 q23 15 47 24.5 q24 9.5 53 9.5 q29 0 54.5 -6.5 q25.5 -6.5 50.5 -14.5 q26 -7 50 -13 q24 -6 49 -6 q39 0 77.5 9.5 q38.5 9.5 68.5 35.5 l-43 66 q-18 -14 -41.5 -25.5 q-23.5 -11.5 -47.5 -11.5 q-23 0 -43.5 6 q-20.5 6 -40.5 12 q-20 5 -43 10 q-23 5 -52 5 q-30 0 -54.5 -9 q-24.5 -9 -50.5 -20 l-2 2 q22 18 43 37 q21 19 37 41.5 q16 22.5 26 49 q10 26.5 10 60.5 q0 21 -6 40 q-6 19 -14 35 l137 0 l0 45 l-159 0 q-9 18 -18 35 q-9 17 -16.5 35 q-7.5 18 -12.5 38.5 q-5 20.5 -5 44.5 q0 28 11 52 q11 24 30.5 41.5 q19.5 17.5 45.5 27.5 q26 10 56 10 q72 0 108 -47.5 q36 -47.5 38 -135.5 l85 0 q2 129 -61.5 193.5 q-63.5 64.5 -174.5 64.5 q-46 0 -87 -14 q-41 -14 -72.5 -40 q-31.5 -26 -50 -63.5 q-18.5 -37.5 -18.5 -85.5 q0 -48 13.5 -85 q13.5 -37 33.5 -71 l-58 0 Z" /><glyph glyph-name="currency" unicode="¤" d="M281 524 q35 0 64.5 -14 q29.5 -14 51 -37.5 q21.5 -23.5 34 -55 q12.5 -31.5 12.5 -66.5 q0 -36 -12.5 -68 q-12.5 -32 -34 -55.5 q-21.5 -23.5 -51.5 -37.5 q-30 -14 -65 -14 q-35 0 -65.5 13.5 q-30.5 13.5 -53 36.5 q-22.5 23 -35.5 55 q-13 32 -13 68 q0 37 13 69 q13 32 35.5 55.5 q22.5 23.5 53 37 q30.5 13.5 66.5 13.5 ZM74 604 l-49 -49 l57 -58 q-28 -28 -41 -67 q-13 -39 -13 -81 q0 -42 13.5 -79 q13.5 -37 38.5 -67 l-55 -58 l48 -48 l55 58 q30 -27 68.5 -40.5 q38.5 -13.5 83.5 -13.5 q42 0 80.5 14 q38.5 14 67.5 41 l56 -58 l47 47 l-55 56 q26 31 39 69.5 q13 38.5 13 80.5 q0 42 -13 81 q-13 39 -39 67 l55 55 l-50 51 l-57 -56 q-27 23 -65 36.5 q-38 13.5 -78 13.5 q-42 0 -82 -13.5 q-40 -13.5 -69 -37.5 l-56 56 Z" /><glyph glyph-name="yen" unicode="¥" d="M232 174 l0 -174 l95 0 l0 174 l144 0 l0 60 l-144 0 l0 42 l18 33 l126 0 l0 60 l-93 0 l178 345 l-104 0 l-169 -353 l-174 353 l-109 0 l183 -345 l-92 0 l0 -60 l123 0 l18 -33 l0 -42 l-141 0 l0 -60 l141 0 Z" /><glyph glyph-name="brokenbar" unicode="¦" d="M145 411 l0 250 l-68 0 l0 -250 l68 0 ZM77 161 l0 -249 l68 0 l0 249 l-68 0 Z" /><glyph glyph-name="section" unicode="§" d="M380 546 l85 0 q-2 94 -52 139.5 q-50 45.5 -132 45.5 q-34 0 -67.5 -10.5 q-33.5 -10.5 -59.5 -31.5 q-26 -21 -42 -51 q-16 -30 -16 -69 q0 -32 12 -57.5 q12 -25.5 34 -48.5 q-22 -6 -41.5 -19.5 q-19.5 -13.5 -34 -32 q-14.5 -18.5 -23 -41 q-8.5 -22.5 -8.5 -45.5 q0 -41 15 -72 q15 -31 39.5 -56 q24.5 -25 56 -44.5 q31.5 -19.5 63.5 -36.5 q33 -18 64 -35 q31 -17 55.5 -35 q24.5 -18 39.5 -39 q15 -21 15 -46 q0 -21 -9 -36.5 q-9 -15.5 -23 -26 q-14 -10.5 -32.5 -15.5 q-18.5 -5 -36.5 -5 q-51 0 -82 31.5 q-31 31.5 -32 82.5 l-85 0 q6 -88 58.5 -138.5 q52.5 -50.5 142.5 -50.5 q41 0 75 11.5 q34 11.5 59 32.5 q25 21 39 50.5 q14 29.5 14 65.5 q0 75 -59 119 q45 18 74.5 57.5 q29.5 39.5 29.5 89.5 q0 37 -14.5 65.5 q-14.5 28.5 -37.5 51.5 q-23 23 -53 41.5 q-30 18.5 -61 35.5 q-31 17 -61 33 q-30 16 -53.5 33.5 q-23.5 17.5 -37.5 37 q-14 19.5 -14 43.5 q0 45 27.5 65.5 q27.5 20.5 67.5 20.5 q48 0 74 -32 q26 -32 27 -78 ZM190 420 q34 -23 68.5 -43.5 q34.5 -20.5 69.5 -41.5 q16 -10 34.5 -21.5 q18.5 -11.5 34.5 -26 q16 -14.5 26.5 -32 q10.5 -17.5 10.5 -38.5 q0 -34 -21.5 -57.5 q-21.5 -23.5 -50.5 -35.5 q-34 23 -69 43.5 q-35 20.5 -71 39.5 q-18 11 -37 22.5 q-19 11.5 -34 25.5 q-15 14 -24.5 32 q-9.5 18 -9.5 42 q0 32 22 56.5 q22 24.5 51 34.5 Z" /><glyph glyph-name="dieresis" unicode="¨" d="M-27 696 l0 -104 l89 0 l0 104 l-89 0 ZM160 696 l0 -104 l90 0 l0 104 l-90 0 Z" /><glyph glyph-name="copyright" unicode="©" d="M599 285 l-64 0 q-7 -45 -39 -73.5 q-32 -28.5 -83 -28.5 q-36 0 -64.5 14.5 q-28.5 14.5 -48.5 38.5 q-20 24 -30.5 56 q-10.5 32 -10.5 67 q0 36 10 67 q10 31 29 54.5 q19 23.5 47.5 36.5 q28.5 13 65.5 13 q51 0 83.5 -27.5 q32.5 -27.5 40.5 -69.5 l63 0 q-12 75 -64 113.5 q-52 38.5 -124 38.5 q-51 0 -92 -17 q-41 -17 -69 -47 q-28 -30 -43 -72 q-15 -42 -15 -92 q0 -49 15.5 -91 q15.5 -42 44.5 -72.5 q29 -30.5 70 -48 q41 -17.5 92 -17.5 q69 0 119.5 42 q50.5 42 66.5 115 ZM92 359 q0 67 23.5 125 q23.5 58 65 100.5 q41.5 42.5 98 67 q56.5 24.5 122.5 24.5 q65 0 121 -24.5 q56 -24.5 97.5 -67 q41.5 -42.5 65 -100.5 q23.5 -58 23.5 -125 q0 -69 -23.5 -127.5 q-23.5 -58.5 -65 -101.5 q-41.5 -43 -97.5 -67.5 q-56 -24.5 -121 -24.5 q-66 0 -122.5 24.5 q-56.5 24.5 -98 67.5 q-41.5 43 -65 101.5 q-23.5 58.5 -23.5 127.5 ZM24 359 q0 -81 30 -149.5 q30 -68.5 81.5 -119 q51.5 -50.5 120 -78.5 q68.5 -28 145.5 -28 q77 0 145 28 q68 28 119 78.5 q51 50.5 81 119 q30 68.5 30 149.5 q0 79 -30 147 q-30 68 -81 118 q-51 50 -119 78.5 q-68 28.5 -145 28.5 q-77 0 -145.5 -28.5 q-68.5 -28.5 -120 -78.5 q-51.5 -50 -81.5 -118 q-30 -68 -30 -147 Z" /><glyph glyph-name="ordfeminine" unicode="ª" d="M155 430 q-25 0 -43.5 7.5 q-18.5 7.5 -18.5 33.5 q0 26 18.5 36.5 q18.5 10.5 45.5 15.5 q28 5 56 9 q28 4 44 14 l0 -47 q0 -11 -5.5 -23.5 q-5.5 -12.5 -17.5 -22.5 q-12 -10 -31.5 -16.5 q-19.5 -6.5 -47.5 -6.5 ZM317 462 l0 160 q0 27 -12 44 q-12 17 -30.5 26.5 q-18.5 9.5 -41.5 13 q-23 3.5 -46 3.5 q-28 0 -54.5 -5.5 q-26.5 -5.5 -46.5 -18.5 q-20 -13 -32.5 -33 q-12.5 -20 -13.5 -49 l60 0 q2 32 24.5 44 q22.5 12 58.5 12 q14 0 28 -1.5 q14 -1.5 25 -6.5 q11 -5 17.5 -14.5 q6.5 -9.5 6.5 -26.5 q0 -10 -5 -16.5 q-5 -6.5 -17.5 -11 q-12.5 -4.5 -35 -7.5 q-22.5 -3 -57.5 -7 q-22 -2 -43.5 -8 q-21.5 -6 -38.5 -17.5 q-17 -11.5 -27.5 -29.5 q-10.5 -18 -10.5 -44 q0 -23 9.5 -40 q9.5 -17 25.5 -28 q16 -11 37 -16 q21 -5 45 -5 q74 0 117 46 q3 -46 51 -46 q13 0 23 2 q10 2 20 6 l0 44 q-6 -2 -11 -2 l-11 0 q-8 0 -11 7 q-3 7 -3 25 Z" /><glyph glyph-name="guillemotleft" unicode="«" d="M50 234 l152 -120 l0 86 l-100 78 l100 78 l0 86 l-152 -120 l0 -88 ZM246 234 l152 -120 l0 86 l-100 78 l100 78 l0 86 l-152 -120 l0 -88 Z" /><glyph glyph-name="logicalnot" unicode="¬" d="M552 109 l0 279 l-504 0 l0 -68 l436 0 l0 -211 l68 0 Z" /><glyph glyph-name="registered" unicode="®" d="M323 382 l0 139 l90 0 q17 0 34.5 -2.5 q17.5 -2.5 31 -9.5 q13.5 -7 22 -20 q8.5 -13 8.5 -35 q0 -26 -9.5 -40.5 q-9.5 -14.5 -25.5 -21.5 q-16 -7 -36.5 -8.5 q-20.5 -1.5 -43.5 -1.5 l-71 0 ZM255 576 l0 -437 l68 0 l0 188 l72 0 l119 -188 l73 0 l-125 193 q49 5 82 32.5 q33 27.5 33 86.5 q0 63 -37.5 94 q-37.5 31 -115.5 31 l-169 0 ZM92 359 q0 67 23.5 125 q23.5 58 65 100.5 q41.5 42.5 98 67 q56.5 24.5 122.5 24.5 q65 0 121 -24.5 q56 -24.5 97.5 -67 q41.5 -42.5 65 -100.5 q23.5 -58 23.5 -125 q0 -69 -23.5 -127.5 q-23.5 -58.5 -65 -101.5 q-41.5 -43 -97.5 -67.5 q-56 -24.5 -121 -24.5 q-66 0 -122.5 24.5 q-56.5 24.5 -98 67.5 q-41.5 43 -65 101.5 q-23.5 58.5 -23.5 127.5 ZM24 359 q0 -81 30 -149.5 q30 -68.5 81.5 -119 q51.5 -50.5 120 -78.5 q68.5 -28 145.5 -28 q77 0 145 28 q68 28 119 78.5 q51 50.5 81 119 q30 68.5 30 149.5 q0 79 -30 147 q-30 68 -81 118 q-51 50 -119 78.5 q-68 28.5 -145 28.5 q-77 0 -145.5 -28.5 q-68.5 -28.5 -120 -78.5 q-51.5 -50 -81.5 -118 q-30 -68 -30 -147 Z" /><glyph glyph-name="macron" unicode="¯" d="M-58 675 l0 -55 l340 0 l0 55 l-340 0 Z" /><glyph glyph-name="degree" unicode="°" d="M106 565 q0 18 6.5 34.5 q6.5 16.5 18.5 30 q12 13.5 29.5 21.5 q17.5 8 39.5 8 q22 0 39.5 -8 q17.5 -8 29.5 -21.5 q12 -13.5 18.5 -30 q6.5 -16.5 6.5 -34.5 q0 -18 -6.5 -34.5 q-6.5 -16.5 -18.5 -30 q-12 -13.5 -29.5 -21.5 q-17.5 -8 -39.5 -8 q-22 0 -39.5 8 q-17.5 8 -29.5 21.5 q-12 13.5 -18.5 30 q-6.5 16.5 -6.5 34.5 ZM56 565 q0 -30 11 -56.5 q11 -26.5 30.5 -46 q19.5 -19.5 46 -30.5 q26.5 -11 56.5 -11 q30 0 56 11 q26 11 45.5 30.5 q19.5 19.5 31 46 q11.5 26.5 11.5 56.5 q0 30 -11.5 56 q-11.5 26 -31 45.5 q-19.5 19.5 -45.5 31 q-26 11.5 -56 11.5 q-30 0 -56.5 -11.5 q-26.5 -11.5 -46 -31 q-19.5 -19.5 -30.5 -45.5 q-11 -26 -11 -56 Z" /><glyph glyph-name="plusminus" unicode="±" d="M48 68 l0 -68 l504 0 l0 68 l-504 0 ZM48 339 l0 -68 l218 0 l0 -167 l68 0 l0 167 l218 0 l0 68 l-218 0 l0 166 l-68 0 l0 -166 l-218 0 Z" /><glyph glyph-name="twosuperior" unicode="²" d="M22 555 l68 0 q0 39 18.5 69 q18.5 30 63.5 30 q35 0 59 -19 q24 -19 24 -51 q0 -22 -7 -39 q-7 -17 -21.5 -31.5 q-14.5 -14.5 -36.5 -28.5 q-22 -14 -51 -31 q-24 -14 -46 -29 q-22 -15 -39 -34.5 q-17 -19.5 -27.5 -46 q-10.5 -26.5 -12.5 -64.5 l303 0 l0 55 l-235 0 q4 16 16.5 29 q12.5 13 30 25 q17.5 12 39 24 q21.5 12 42.5 25 q21 12 41.5 26 q20.5 14 36 31 q15.5 17 25.5 38.5 q10 21.5 10 49.5 q0 30 -11.5 53.5 q-11.5 23.5 -32 39.5 q-20.5 16 -47.5 24.5 q-27 8.5 -57 8.5 q-70 0 -111.5 -42.5 q-41.5 -42.5 -41.5 -111.5 Z" /><glyph glyph-name="threesuperior" unicode="³" d="M132 527 l0 -50 l33 0 q18 0 34.5 -4 q16.5 -4 29.5 -13.5 q13 -9.5 21 -24 q8 -14.5 8 -35.5 q0 -34 -28 -53 q-28 -19 -66 -19 q-90 0 -92 86 l-68 0 q0 -35 12.5 -61.5 q12.5 -26.5 34 -44 q21.5 -17.5 51 -26.5 q29.5 -9 62.5 -9 q32 0 61 8 q29 8 51.5 24 q22.5 16 36 40.5 q13.5 24.5 13.5 57.5 q0 38 -21 66 q-21 28 -66 36 l0 2 q28 11 48 33.5 q20 22.5 20 51.5 q0 29 -11 51 q-11 22 -30.5 36.5 q-19.5 14.5 -46 22 q-26.5 7.5 -57.5 7.5 q-67 0 -105.5 -37.5 q-38.5 -37.5 -42.5 -103.5 l68 0 q0 37 19 61.5 q19 24.5 61 24.5 q33 0 55 -16 q22 -16 22 -46 q0 -35 -25 -50 q-25 -15 -58 -15 l-24 0 Z" /><glyph glyph-name="acute" unicode="´" d="M136 731 l-86 -143 l64 0 l131 143 l-109 0 Z" /><glyph glyph-name="mu" unicode="µ" d="M492 0 l0 517 l-85 0 l0 -292 q0 -35 -9.5 -64.5 q-9.5 -29.5 -28.5 -51.5 q-19 -22 -47.5 -34 q-28.5 -12 -67.5 -12 q-49 0 -77 28 q-28 28 -28 76 l0 350 l-85 0 l0 -714 l85 0 l0 223 l2 0 q13 -20 36 -28.5 q23 -8.5 55 -8.5 q57 0 99 22.5 q42 22.5 69 70.5 l2 0 l0 -82 l80 0 Z" /><glyph glyph-name="paragraph" unicode="¶" d="M515 -154 l0 868 l-239 0 q-106 0 -167 -53.5 q-61 -53.5 -61 -152.5 q0 -39 15.5 -73 q15.5 -34 43 -59 q27.5 -25 66 -39.5 q38.5 -14.5 84.5 -14.5 l0 -476 l68 0 l0 813 l122 0 l0 -813 l68 0 Z" /><glyph glyph-name="periodcentered" unicode="·" d="M75 311 q0 -26 19.5 -45 q19.5 -19 45.5 -19 q25 0 44 20 q19 20 19 44 q0 26 -19 45 q-19 19 -45 19 q-26 0 -45 -19 q-19 -19 -19 -45 Z" /><glyph glyph-name="cedilla" unicode="¸" d="M23 -146 l-18 -44 q23 -8 45.5 -13.5 q22.5 -5.5 46.5 -5.5 q21 0 43 4.5 q22 4.5 40 15 q18 10.5 29.5 27.5 q11.5 17 11.5 42 q0 37 -26 55 q-26 18 -58 18 q-23 0 -33 -7 l-2 2 l42 52 l-42 0 l-61 -77 l17 -28 q11 4 20 6 q9 2 21 2 q20 0 33.5 -8.5 q13.5 -8.5 13.5 -22.5 q0 -9 -6 -14.5 q-6 -5.5 -15 -9.5 q-9 -4 -20 -5.5 q-11 -1.5 -21 -1.5 q-16 0 -32.5 4 q-16.5 4 -28.5 9 Z" /><glyph glyph-name="onesuperior" unicode="¹" d="M249 280 l0 429 l-50 0 q-10 -41 -47 -56 q-37 -15 -86 -15 l0 -50 l115 0 l0 -308 l68 0 Z" /><glyph glyph-name="ordmasculine" unicode="º" d="M192 659 q16 0 33.5 -4.5 q17.5 -4.5 32 -17.5 q14.5 -13 24 -36 q9.5 -23 9.5 -59 q0 -22 -5.5 -42.5 q-5.5 -20.5 -17 -36 q-11.5 -15.5 -30 -24.5 q-18.5 -9 -45.5 -9 q-27 0 -46 9 q-19 9 -31 25 q-12 16 -17.5 36.5 q-5.5 20.5 -5.5 42.5 q0 60 28.5 88 q28.5 28 70.5 28 ZM192 709 q-40 0 -71.5 -13 q-31.5 -13 -52.5 -35.5 q-21 -22.5 -32 -52.5 q-11 -30 -11 -65 q0 -36 11.5 -65.5 q11.5 -29.5 33 -51.5 q21.5 -22 52.5 -34 q31 -12 71 -12 q82 0 124 45.5 q42 45.5 42 117.5 q0 35 -11 65.5 q-11 30.5 -32 53 q-21 22.5 -52 35 q-31 12.5 -72 12.5 Z" /><glyph glyph-name="guillemotright" unicode="»" d="M413 322 l-152 120 l0 -86 l100 -78 l-100 -78 l0 -86 l152 120 l0 88 ZM217 322 l-152 120 l0 -86 l100 -78 l-100 -78 l0 -86 l152 120 l0 88 Z" /><glyph glyph-name="onequarter" unicode="¼" d="M219 280 l0 429 l-50 0 q-10 -42 -47 -56.5 q-37 -14.5 -86 -14.5 l0 -50 l115 0 l0 -308 l68 0 ZM585 725 l-435 -752 l64 0 l435 752 l-64 0 ZM511 151 l148 193 l2 0 l0 -193 l-150 0 ZM723 151 l0 278 l-51 0 l-210 -275 l0 -58 l199 0 l0 -96 l62 0 l0 96 l60 0 l0 55 l-60 0 Z" /><glyph glyph-name="onehalf" unicode="½" d="M502 275 l68 0 q0 39 18.5 69 q18.5 30 63.5 30 q35 0 59 -19 q24 -19 24 -51 q0 -22 -7 -39 q-7 -17 -21.5 -31.5 q-14.5 -14.5 -36.5 -28.5 q-22 -14 -51 -31 q-24 -14 -46 -29 q-22 -15 -39 -34.5 q-17 -19.5 -27.5 -46 q-10.5 -26.5 -12.5 -64.5 l303 0 l0 55 l-235 0 q4 16 16.5 29 q12.5 13 30 25 q17.5 12 39 24 q21.5 12 42.5 25 q21 12 41.5 26 q20.5 14 36 31 q15.5 17 25.5 38.5 q10 21.5 10 49.5 q0 30 -11.5 53.5 q-11.5 23.5 -32 39.5 q-20.5 16 -47.5 24.5 q-27 8.5 -57 8.5 q-70 0 -111.5 -42.5 q-41.5 -42.5 -41.5 -111.5 ZM219 280 l0 429 l-50 0 q-10 -42 -47 -56.5 q-37 -14.5 -86 -14.5 l0 -50 l115 0 l0 -308 l68 0 ZM570 725 l-435 -752 l64 0 l435 752 l-64 0 Z" /><glyph glyph-name="threequarters" unicode="¾" d="M177 527 l0 -50 l33 0 q18 0 34.5 -4 q16.5 -4 29.5 -13.5 q13 -9.5 21 -24 q8 -14.5 8 -35.5 q0 -34 -28 -53 q-28 -19 -66 -19 q-90 0 -92 86 l-68 0 q0 -35 12.5 -61.5 q12.5 -26.5 34 -44 q21.5 -17.5 51 -26.5 q29.5 -9 62.5 -9 q32 0 61 8 q29 8 51.5 24 q22.5 16 36 40.5 q13.5 24.5 13.5 57.5 q0 38 -21 66 q-21 28 -66 36 l0 2 q28 11 48 33.5 q20 22.5 20 51.5 q0 29 -11 51 q-11 22 -30.5 36.5 q-19.5 14.5 -46 22 q-26.5 7.5 -57.5 7.5 q-67 0 -105.5 -37.5 q-38.5 -37.5 -42.5 -103.5 l68 0 q0 37 19 61.5 q19 24.5 61 24.5 q33 0 55 -16 q22 -16 22 -46 q0 -35 -25 -50 q-25 -15 -58 -15 l-24 0 ZM650 725 l-435 -752 l64 0 l435 752 l-64 0 ZM529 147 l148 193 l2 0 l0 -193 l-150 0 ZM740 151 l0 278 l-51 0 l-210 -275 l0 -58 l199 0 l0 -96 l62 0 l0 96 l60 0 l0 55 l-60 0 Z" /><glyph glyph-name="questiondown" unicode="¿" d="M337 406 l0 111 l-111 0 l0 -111 l111 0 ZM503 30 l-85 0 q0 -34 -8 -64 q-8 -30 -25.5 -52 q-17.5 -22 -43.5 -35 q-26 -13 -62 -13 q-54 0 -85.5 31 q-31.5 31 -35.5 86 q-2 36 9 62 q11 26 29.5 47.5 q18.5 21.5 40 41 q21.5 19.5 41 42.5 q19.5 23 33 53 q13.5 30 15.5 71 l0 39 l-85 0 l0 -31 q0 -25 -7.5 -46 q-7.5 -21 -20 -38.5 q-12.5 -17.5 -28 -33 q-15.5 -15.5 -31.5 -30.5 q-17 -16 -32.5 -33 q-15.5 -17 -27.5 -37 q-12 -20 -19 -44.5 q-7 -24.5 -7 -54.5 q0 -48 15.5 -85 q15.5 -37 43.5 -62.5 q28 -25.5 67 -39 q39 -13.5 85 -13.5 q52 0 94 18.5 q42 18.5 71.5 50.5 q29.5 32 44.5 75.5 q15 43.5 14 94.5 Z" /><glyph glyph-name="Agrave" unicode="À" d="M190 908 l131 -143 l64 0 l-86 143 l-109 0 ZM201 295 l121 333 l2 0 l119 -333 l-242 0 ZM272 714 l-278 -714 l97 0 l80 215 l302 0 l78 -215 l105 0 l-279 714 l-105 0 Z" /><glyph glyph-name="Aacute" unicode="Á" d="M349 908 l-86 -143 l64 0 l131 143 l-109 0 ZM201 295 l121 333 l2 0 l119 -333 l-242 0 ZM272 714 l-278 -714 l97 0 l80 215 l302 0 l78 -215 l105 0 l-279 714 l-105 0 Z" /><glyph glyph-name="Acircumflex" unicode="Â" d="M277 908 l-103 -143 l77 0 l70 96 l69 -96 l84 0 l-104 143 l-93 0 ZM201 295 l121 333 l2 0 l119 -333 l-242 0 ZM272 714 l-278 -714 l97 0 l80 215 l302 0 l78 -215 l105 0 l-279 714 l-105 0 Z" /><glyph glyph-name="Atilde" unicode="Ã" d="M498 888 l-52 0 q-5 -15 -15.5 -29.5 q-10.5 -14.5 -30.5 -14.5 q-16 0 -32.5 6.5 q-16.5 6.5 -33.5 14 q-17 7.5 -35.5 13.5 q-18.5 6 -38.5 6 q-24 0 -41 -9 q-17 -9 -29 -24 q-12 -15 -20.5 -35 q-8.5 -20 -14.5 -42 l52 0 q-2 19 15 30.5 q17 11.5 33 11.5 q14 0 31.5 -6 q17.5 -6 35.5 -13 q18 -8 35.5 -14 q17.5 -6 30.5 -6 q29 0 47.5 8.5 q18.5 8.5 31.5 22.5 q25 35 31 80 ZM201 295 l121 333 l2 0 l119 -333 l-242 0 ZM272 714 l-278 -714 l97 0 l80 215 l302 0 l78 -215 l105 0 l-279 714 l-105 0 Z" /><glyph glyph-name="Adieresis" unicode="Ä" d="M185 873 l0 -104 l90 0 l0 104 l-90 0 ZM373 873 l0 -104 l90 0 l0 104 l-90 0 ZM201 295 l121 333 l2 0 l119 -333 l-242 0 ZM272 714 l-278 -714 l97 0 l80 215 l302 0 l78 -215 l105 0 l-279 714 l-105 0 Z" /><glyph glyph-name="Aring" unicode="Å" d="M211 839 q0 -23 9 -43.5 q9 -20.5 24.5 -36 q15.5 -15.5 36 -24.5 q20.5 -9 43.5 -9 q23 0 43.5 9 q20.5 9 36 24.5 q15.5 15.5 24.5 36 q9 20.5 9 43.5 q0 23 -9 43.5 q-9 20.5 -24.5 36 q-15.5 15.5 -36 24.5 q-20.5 9 -43.5 9 q-23 0 -43.5 -9 q-20.5 -9 -36 -24.5 q-15.5 -15.5 -24.5 -36 q-9 -20.5 -9 -43.5 ZM256 839 q0 29 19.5 48.5 q19.5 19.5 48.5 19.5 q29 0 48.5 -19.5 q19.5 -19.5 19.5 -48.5 q0 -29 -19.5 -48.5 q-19.5 -19.5 -48.5 -19.5 q-29 0 -48.5 19.5 q-19.5 19.5 -19.5 48.5 ZM201 295 l121 333 l2 0 l119 -333 l-242 0 ZM272 714 l-278 -714 l97 0 l80 215 l302 0 l78 -215 l105 0 l-279 714 l-105 0 Z" /><glyph glyph-name="AE" unicode="Æ" d="M407 634 l41 0 l0 -346 l-209 0 l168 346 ZM354 714 l-360 -714 l106 0 l102 208 l246 0 l0 -208 l447 0 l0 80 l-357 0 l0 247 l330 0 l0 80 l-330 0 l0 227 l351 0 l0 80 l-535 0 Z" /><glyph glyph-name="Ccedilla" unicode="Ç" d="M580 499 l95 0 q-8 57 -34 100.5 q-26 43.5 -65 72.5 q-39 29 -89 44 q-50 15 -106 15 q-82 0 -145.5 -29.5 q-63.5 -29.5 -106 -80.5 q-42.5 -51 -64.5 -119.5 q-22 -68.5 -22 -146.5 q0 -75 18.5 -139.5 q18.5 -64.5 55 -113.5 q36.5 -49 92.5 -79.5 q56 -30.5 131 -36.5 l-49 -63 l17 -28 q11 4 20 6 q9 2 21 2 q20 0 33.5 -8.5 q13.5 -8.5 13.5 -22.5 q0 -9 -6 -14.5 q-6 -5.5 -15 -9.5 q-9 -4 -20 -5.5 q-11 -1.5 -21 -1.5 q-16 0 -32.5 4 q-16.5 4 -28.5 9 l-18 -44 q23 -8 45.5 -13.5 q22.5 -5.5 46.5 -5.5 q21 0 43 4.5 q22 4.5 40 15 q18 10.5 29.5 27.5 q11.5 17 11.5 42 q0 37 -26 55 q-26 18 -58 18 q-23 0 -33 -7 l-2 2 l29 37 q132 2 209.5 77 q77.5 75 91.5 207 l-95 0 q-3 -44 -18 -82 q-15 -38 -41.5 -65.5 q-26.5 -27.5 -63 -43 q-36.5 -15.5 -83.5 -15.5 q-64 0 -110 24 q-46 24 -75.5 64.5 q-29.5 40.5 -43.5 95 q-14 54.5 -14 115.5 q0 56 14 108 q14 52 43.5 92.5 q29.5 40.5 75 64.5 q45.5 24 109.5 24 q75 0 129.5 -38 q54.5 -38 70.5 -114 Z" /><glyph glyph-name="Egrave" unicode="È" d="M172 908 l131 -143 l64 0 l-86 143 l-109 0 ZM78 714 l0 -714 l496 0 l0 80 l-401 0 l0 247 l371 0 l0 80 l-371 0 l0 227 l398 0 l0 80 l-493 0 Z" /><glyph glyph-name="Eacute" unicode="É" d="M331 908 l-86 -143 l64 0 l131 143 l-109 0 ZM78 714 l0 -714 l496 0 l0 80 l-401 0 l0 247 l371 0 l0 80 l-371 0 l0 227 l398 0 l0 80 l-493 0 Z" /><glyph glyph-name="Ecircumflex" unicode="Ê" d="M259 908 l-103 -143 l77 0 l70 96 l69 -96 l84 0 l-104 143 l-93 0 ZM78 714 l0 -714 l496 0 l0 80 l-401 0 l0 247 l371 0 l0 80 l-371 0 l0 227 l398 0 l0 80 l-493 0 Z" /><glyph glyph-name="Edieresis" unicode="Ë" d="M167 873 l0 -104 l90 0 l0 104 l-90 0 ZM355 873 l0 -104 l90 0 l0 104 l-90 0 ZM78 714 l0 -714 l496 0 l0 80 l-401 0 l0 247 l371 0 l0 80 l-371 0 l0 227 l398 0 l0 80 l-493 0 Z" /><glyph glyph-name="Igrave" unicode="Ì" d="M-3 908 l130 -143 l64 0 l-86 143 l-108 0 ZM82 714 l0 -714 l95 0 l0 714 l-95 0 Z" /><glyph glyph-name="Iacute" unicode="Í" d="M155 908 l-86 -143 l64 0 l131 143 l-109 0 ZM82 714 l0 -714 l95 0 l0 714 l-95 0 Z" /><glyph glyph-name="Icircumflex" unicode="Î" d="M83 908 l-102 -143 l76 0 l70 96 l69 -96 l84 0 l-104 143 l-93 0 ZM82 714 l0 -714 l95 0 l0 714 l-95 0 Z" /><glyph glyph-name="Idieresis" unicode="Ï" d="M-8 873 l0 -104 l89 0 l0 104 l-89 0 ZM179 873 l0 -104 l90 0 l0 104 l-90 0 ZM82 714 l0 -714 l95 0 l0 714 l-95 0 Z" /><glyph glyph-name="Eth" unicode="Ð" d="M173 407 l0 227 l160 0 q66 0 111 -18.5 q45 -18.5 73.5 -54 q28.5 -35.5 41 -86 q12.5 -50.5 12.5 -114.5 q0 -66 -13.5 -112.5 q-13.5 -46.5 -34.5 -77.5 q-21 -31 -47.5 -49 q-26.5 -18 -53.5 -27.5 q-27 -9.5 -51 -12 q-24 -2.5 -40 -2.5 l-158 0 l0 259 l214 0 l0 68 l-214 0 ZM78 339 l0 -339 l245 0 q89 0 154 25 q65 25 107 72.5 q42 47.5 62 117 q20 69.5 20 159.5 q0 172 -89 256 q-89 84 -254 84 l-245 0 l0 -307 l-70 0 l0 -68 l70 0 Z" /><glyph glyph-name="Ntilde" unicode="Ñ" d="M535 888 l-52 0 q-5 -15 -15.5 -29.5 q-10.5 -14.5 -30.5 -14.5 q-16 0 -32.5 6.5 q-16.5 6.5 -33.5 14 q-17 7.5 -35.5 13.5 q-18.5 6 -38.5 6 q-24 0 -41 -9 q-17 -9 -29 -24 q-12 -15 -20.5 -35 q-8.5 -20 -14.5 -42 l52 0 q-2 19 15 30.5 q17 11.5 33 11.5 q14 0 31.5 -6 q17.5 -6 35.5 -13 q18 -8 35.5 -14 q17.5 -6 30.5 -6 q29 0 47.5 8.5 q18.5 8.5 31.5 22.5 q25 35 31 80 ZM77 714 l0 -714 l90 0 l0 573 l2 0 l373 -573 l104 0 l0 714 l-90 0 l0 -579 l-2 0 l-376 579 l-101 0 Z" /><glyph glyph-name="Ograve" unicode="Ò" d="M246 908 l131 -143 l64 0 l-86 143 l-109 0 ZM133 357 q0 54 14 106.5 q14 52.5 44 94.5 q30 42 77 67.5 q47 25.5 112 25.5 q65 0 112 -25.5 q47 -25.5 77 -67.5 q30 -42 44 -94.5 q14 -52.5 14 -106.5 q0 -54 -14 -106.5 q-14 -52.5 -44 -94.5 q-30 -42 -77 -67.5 q-47 -25.5 -112 -25.5 q-65 0 -112 25.5 q-47 25.5 -77 67.5 q-30 42 -44 94.5 q-14 52.5 -14 106.5 ZM38 357 q0 -73 21.5 -140.5 q21.5 -67.5 64.5 -119.5 q43 -52 107 -82.5 q64 -30.5 149 -30.5 q85 0 149 30.5 q64 30.5 107 82.5 q43 52 64.5 119.5 q21.5 67.5 21.5 140.5 q0 73 -21.5 140.5 q-21.5 67.5 -64.5 119.5 q-43 52 -107 83 q-64 31 -149 31 q-85 0 -149 -31 q-64 -31 -107 -83 q-43 -52 -64.5 -119.5 q-21.5 -67.5 -21.5 -140.5 Z" /><glyph glyph-name="Oacute" unicode="Ó" d="M405 908 l-86 -143 l64 0 l131 143 l-109 0 ZM133 357 q0 54 14 106.5 q14 52.5 44 94.5 q30 42 77 67.5 q47 25.5 112 25.5 q65 0 112 -25.5 q47 -25.5 77 -67.5 q30 -42 44 -94.5 q14 -52.5 14 -106.5 q0 -54 -14 -106.5 q-14 -52.5 -44 -94.5 q-30 -42 -77 -67.5 q-47 -25.5 -112 -25.5 q-65 0 -112 25.5 q-47 25.5 -77 67.5 q-30 42 -44 94.5 q-14 52.5 -14 106.5 ZM38 357 q0 -73 21.5 -140.5 q21.5 -67.5 64.5 -119.5 q43 -52 107 -82.5 q64 -30.5 149 -30.5 q85 0 149 30.5 q64 30.5 107 82.5 q43 52 64.5 119.5 q21.5 67.5 21.5 140.5 q0 73 -21.5 140.5 q-21.5 67.5 -64.5 119.5 q-43 52 -107 83 q-64 31 -149 31 q-85 0 -149 -31 q-64 -31 -107 -83 q-43 -52 -64.5 -119.5 q-21.5 -67.5 -21.5 -140.5 Z" /><glyph glyph-name="Ocircumflex" unicode="Ô" d="M333 908 l-103 -143 l77 0 l70 96 l69 -96 l84 0 l-104 143 l-93 0 ZM133 357 q0 54 14 106.5 q14 52.5 44 94.5 q30 42 77 67.5 q47 25.5 112 25.5 q65 0 112 -25.5 q47 -25.5 77 -67.5 q30 -42 44 -94.5 q14 -52.5 14 -106.5 q0 -54 -14 -106.5 q-14 -52.5 -44 -94.5 q-30 -42 -77 -67.5 q-47 -25.5 -112 -25.5 q-65 0 -112 25.5 q-47 25.5 -77 67.5 q-30 42 -44 94.5 q-14 52.5 -14 106.5 ZM38 357 q0 -73 21.5 -140.5 q21.5 -67.5 64.5 -119.5 q43 -52 107 -82.5 q64 -30.5 149 -30.5 q85 0 149 30.5 q64 30.5 107 82.5 q43 52 64.5 119.5 q21.5 67.5 21.5 140.5 q0 73 -21.5 140.5 q-21.5 67.5 -64.5 119.5 q-43 52 -107 83 q-64 31 -149 31 q-85 0 -149 -31 q-64 -31 -107 -83 q-43 -52 -64.5 -119.5 q-21.5 -67.5 -21.5 -140.5 Z" /><glyph glyph-name="Otilde" unicode="Õ" d="M554 888 l-52 0 q-5 -15 -15.5 -29.5 q-10.5 -14.5 -30.5 -14.5 q-16 0 -32.5 6.5 q-16.5 6.5 -33.5 14 q-17 7.5 -35.5 13.5 q-18.5 6 -38.5 6 q-24 0 -41 -9 q-17 -9 -29 -24 q-12 -15 -20.5 -35 q-8.5 -20 -14.5 -42 l52 0 q-2 19 15 30.5 q17 11.5 33 11.5 q14 0 31.5 -6 q17.5 -6 35.5 -13 q18 -8 35.5 -14 q17.5 -6 30.5 -6 q29 0 47.5 8.5 q18.5 8.5 31.5 22.5 q25 35 31 80 ZM133 357 q0 54 14 106.5 q14 52.5 44 94.5 q30 42 77 67.5 q47 25.5 112 25.5 q65 0 112 -25.5 q47 -25.5 77 -67.5 q30 -42 44 -94.5 q14 -52.5 14 -106.5 q0 -54 -14 -106.5 q-14 -52.5 -44 -94.5 q-30 -42 -77 -67.5 q-47 -25.5 -112 -25.5 q-65 0 -112 25.5 q-47 25.5 -77 67.5 q-30 42 -44 94.5 q-14 52.5 -14 106.5 ZM38 357 q0 -73 21.5 -140.5 q21.5 -67.5 64.5 -119.5 q43 -52 107 -82.5 q64 -30.5 149 -30.5 q85 0 149 30.5 q64 30.5 107 82.5 q43 52 64.5 119.5 q21.5 67.5 21.5 140.5 q0 73 -21.5 140.5 q-21.5 67.5 -64.5 119.5 q-43 52 -107 83 q-64 31 -149 31 q-85 0 -149 -31 q-64 -31 -107 -83 q-43 -52 -64.5 -119.5 q-21.5 -67.5 -21.5 -140.5 Z" /><glyph glyph-name="Odieresis" unicode="Ö" d="M241 873 l0 -104 l90 0 l0 104 l-90 0 ZM429 873 l0 -104 l90 0 l0 104 l-90 0 ZM133 357 q0 54 14 106.5 q14 52.5 44 94.5 q30 42 77 67.5 q47 25.5 112 25.5 q65 0 112 -25.5 q47 -25.5 77 -67.5 q30 -42 44 -94.5 q14 -52.5 14 -106.5 q0 -54 -14 -106.5 q-14 -52.5 -44 -94.5 q-30 -42 -77 -67.5 q-47 -25.5 -112 -25.5 q-65 0 -112 25.5 q-47 25.5 -77 67.5 q-30 42 -44 94.5 q-14 52.5 -14 106.5 ZM38 357 q0 -73 21.5 -140.5 q21.5 -67.5 64.5 -119.5 q43 -52 107 -82.5 q64 -30.5 149 -30.5 q85 0 149 30.5 q64 30.5 107 82.5 q43 52 64.5 119.5 q21.5 67.5 21.5 140.5 q0 73 -21.5 140.5 q-21.5 67.5 -64.5 119.5 q-43 52 -107 83 q-64 31 -149 31 q-85 0 -149 -31 q-64 -31 -107 -83 q-43 -52 -64.5 -119.5 q-21.5 -67.5 -21.5 -140.5 Z" /><glyph glyph-name="multiply" unicode="×" d="M71 72 l48 -48 l182 182 l181 -182 l48 48 l-181 182 l180 180 l-48 48 l-180 -180 l-181 180 l-48 -48 l181 -180 l-182 -182 Z" /><glyph glyph-name="Oslash" unicode="Ø" d="M723 700 l-32 30 l-79 -87 q-42 42 -99.5 65 q-57.5 23 -132.5 23 q-85 0 -149 -31 q-64 -31 -107 -83 q-43 -52 -64.5 -119.5 q-21.5 -67.5 -21.5 -140.5 q0 -72 20.5 -138 q20.5 -66 62.5 -117 l-84 -92 l33 -29 l81 88 q42 -40 99 -62.5 q57 -22.5 130 -22.5 q85 0 149 30.5 q64 30.5 107 82.5 q43 52 64.5 119.5 q21.5 67.5 21.5 140.5 q0 72 -19.5 136.5 q-19.5 64.5 -61.5 116.5 l82 90 ZM210 134 l369 407 q25 -39 36.5 -87 q11.5 -48 11.5 -97 q0 -54 -14 -106.5 q-14 -52.5 -44 -94.5 q-30 -42 -77 -67.5 q-47 -25.5 -112 -25.5 q-57 0 -99 19 q-42 19 -71 52 ZM552 577 l-369 -407 q-26 40 -38 88 q-12 48 -12 99 q0 54 14 106.5 q14 52.5 44 94.5 q30 42 77 67.5 q47 25.5 112 25.5 q57 0 100 -20 q43 -20 72 -54 Z" /><glyph glyph-name="Ugrave" unicode="Ù" d="M227 908 l131 -143 l64 0 l-86 143 l-109 0 ZM648 258 l0 456 l-95 0 l0 -456 q0 -96 -47.5 -145.5 q-47.5 -49.5 -138.5 -49.5 q-96 0 -147 49.5 q-51 49.5 -51 145.5 l0 456 l-95 0 l0 -456 q0 -143 77.5 -208.5 q77.5 -65.5 215.5 -65.5 q135 0 208 68.5 q73 68.5 73 205.5 Z" /><glyph glyph-name="Uacute" unicode="Ú" d="M386 908 l-86 -143 l64 0 l131 143 l-109 0 ZM648 258 l0 456 l-95 0 l0 -456 q0 -96 -47.5 -145.5 q-47.5 -49.5 -138.5 -49.5 q-96 0 -147 49.5 q-51 49.5 -51 145.5 l0 456 l-95 0 l0 -456 q0 -143 77.5 -208.5 q77.5 -65.5 215.5 -65.5 q135 0 208 68.5 q73 68.5 73 205.5 Z" /><glyph glyph-name="Ucircumflex" unicode="Û" d="M314 908 l-103 -143 l77 0 l70 96 l69 -96 l84 0 l-104 143 l-93 0 ZM648 258 l0 456 l-95 0 l0 -456 q0 -96 -47.5 -145.5 q-47.5 -49.5 -138.5 -49.5 q-96 0 -147 49.5 q-51 49.5 -51 145.5 l0 456 l-95 0 l0 -456 q0 -143 77.5 -208.5 q77.5 -65.5 215.5 -65.5 q135 0 208 68.5 q73 68.5 73 205.5 Z" /><glyph glyph-name="Udieresis" unicode="Ü" d="M222 873 l0 -104 l90 0 l0 104 l-90 0 ZM410 873 l0 -104 l90 0 l0 104 l-90 0 ZM648 258 l0 456 l-95 0 l0 -456 q0 -96 -47.5 -145.5 q-47.5 -49.5 -138.5 -49.5 q-96 0 -147 49.5 q-51 49.5 -51 145.5 l0 456 l-95 0 l0 -456 q0 -143 77.5 -208.5 q77.5 -65.5 215.5 -65.5 q135 0 208 68.5 q73 68.5 73 205.5 Z" /><glyph glyph-name="Yacute" unicode="Ý" d="M349 908 l-86 -143 l64 0 l131 143 l-109 0 ZM373 292 l273 422 l-108 0 l-209 -340 l-214 340 l-113 0 l276 -422 l0 -292 l95 0 l0 292 Z" /><glyph glyph-name="Thorn" unicode="Þ" d="M173 258 l0 262 l186 0 q81 0 118.5 -33 q37.5 -33 37.5 -99 q0 -64 -37.5 -97.5 q-37.5 -33.5 -118.5 -32.5 l-186 0 ZM78 0 l95 0 l0 178 l218 0 q108 -1 163.5 54.5 q55.5 55.5 55.5 155.5 q0 100 -55.5 156 q-55.5 56 -163.5 56 l-218 0 l0 114 l-95 0 l0 -714 Z" /><glyph glyph-name="germandbls" unicode="ß" d="M64 531 l0 -531 l85 0 l0 516 q0 42 9 69 q9 27 24.5 42.5 q15.5 15.5 37.5 22 q22 6.5 48 6.5 q24 0 44 -9 q20 -9 35 -24 q15 -15 23.5 -35.5 q8.5 -20.5 8.5 -44.5 q0 -34 -12.5 -57.5 q-12.5 -23.5 -33.5 -37 q-21 -13.5 -48.5 -18.5 q-27.5 -5 -57.5 -3 l0 -68 q42 0 76 -5 q34 -5 58 -21 q24 -16 37 -45.5 q13 -29.5 13 -78.5 q0 -66 -40.5 -106 q-40.5 -40 -109.5 -40 q-8 0 -17 0.5 q-9 0.5 -17 2.5 l0 -73 q20 -4 43 -4 q51 0 93.5 16.5 q42.5 16.5 73 47 q30.5 30.5 47.5 73 q17 42.5 17 94.5 q0 33 -8.5 63.5 q-8.5 30.5 -25.5 54.5 q-17 24 -42.5 40.5 q-25.5 16.5 -59.5 20.5 l0 2 q57 18 80.5 58 q23.5 40 23.5 97 q0 44 -18.5 76.5 q-18.5 32.5 -48 54.5 q-29.5 22 -66.5 33 q-37 11 -74 11 q-45 0 -81.5 -14.5 q-36.5 -14.5 -62.5 -41 q-26 -26.5 -40 -63 q-14 -36.5 -14 -81.5 Z" /><glyph glyph-name="agrave" unicode="à" d="M135 731 l131 -143 l64 0 l-86 143 l-109 0 ZM522 2 l0 66 q-15 -5 -26 -5 q-20 0 -23.5 14 q-3.5 14 -3.5 44 l0 266 q0 45 -17 73 q-17 28 -45 43.5 q-28 15.5 -62.5 20.5 q-34.5 5 -69.5 5 q-43 0 -82 -9 q-39 -9 -69 -29.5 q-30 -20.5 -48 -53.5 q-18 -33 -20 -81 l85 0 q3 57 39 77.5 q36 20.5 90 20.5 q20 0 40.5 -3 q20.5 -3 37 -12 q16.5 -9 27 -26 q10.5 -17 10.5 -45 q0 -24 -14 -36.5 q-14 -12.5 -38 -19 q-24 -6.5 -55.5 -10 q-31.5 -3.5 -66.5 -10.5 q-33 -6 -64.5 -15 q-31.5 -9 -56 -26.5 q-24.5 -17.5 -39.5 -45.5 q-15 -28 -15 -72 q0 -39 13.5 -66.5 q13.5 -27.5 37 -45 q23.5 -17.5 54.5 -25 q31 -7.5 66 -7.5 q54 0 100.5 18.5 q46.5 18.5 81.5 60.5 q0 -42 19.5 -60.5 q19.5 -18.5 52.5 -18.5 q39 0 61 13 ZM384 267 l0 -87 q0 -18 -9 -38.5 q-9 -20.5 -28 -38 q-19 -17.5 -49 -29 q-30 -11.5 -72 -11.5 q-19 0 -37.5 4 q-18.5 4 -32 13 q-13.5 9 -22 23.5 q-8.5 14.5 -8.5 35.5 q0 32 14.5 50.5 q14.5 18.5 37.5 28.5 q23 10 52 14.5 q29 4.5 57.5 8 q28.5 3.5 54.5 9 q26 5.5 42 17.5 Z" /><glyph glyph-name="aacute" unicode="á" d="M294 731 l-86 -143 l64 0 l131 143 l-109 0 ZM522 2 l0 66 q-15 -5 -26 -5 q-20 0 -23.5 14 q-3.5 14 -3.5 44 l0 266 q0 45 -17 73 q-17 28 -45 43.5 q-28 15.5 -62.5 20.5 q-34.5 5 -69.5 5 q-43 0 -82 -9 q-39 -9 -69 -29.5 q-30 -20.5 -48 -53.5 q-18 -33 -20 -81 l85 0 q3 57 39 77.5 q36 20.5 90 20.5 q20 0 40.5 -3 q20.5 -3 37 -12 q16.5 -9 27 -26 q10.5 -17 10.5 -45 q0 -24 -14 -36.5 q-14 -12.5 -38 -19 q-24 -6.5 -55.5 -10 q-31.5 -3.5 -66.5 -10.5 q-33 -6 -64.5 -15 q-31.5 -9 -56 -26.5 q-24.5 -17.5 -39.5 -45.5 q-15 -28 -15 -72 q0 -39 13.5 -66.5 q13.5 -27.5 37 -45 q23.5 -17.5 54.5 -25 q31 -7.5 66 -7.5 q54 0 100.5 18.5 q46.5 18.5 81.5 60.5 q0 -42 19.5 -60.5 q19.5 -18.5 52.5 -18.5 q39 0 61 13 ZM384 267 l0 -87 q0 -18 -9 -38.5 q-9 -20.5 -28 -38 q-19 -17.5 -49 -29 q-30 -11.5 -72 -11.5 q-19 0 -37.5 4 q-18.5 4 -32 13 q-13.5 9 -22 23.5 q-8.5 14.5 -8.5 35.5 q0 32 14.5 50.5 q14.5 18.5 37.5 28.5 q23 10 52 14.5 q29 4.5 57.5 8 q28.5 3.5 54.5 9 q26 5.5 42 17.5 Z" /><glyph glyph-name="acircumflex" unicode="â" d="M222 731 l-103 -143 l77 0 l70 96 l69 -96 l84 0 l-104 143 l-93 0 ZM522 2 l0 66 q-15 -5 -26 -5 q-20 0 -23.5 14 q-3.5 14 -3.5 44 l0 266 q0 45 -17 73 q-17 28 -45 43.5 q-28 15.5 -62.5 20.5 q-34.5 5 -69.5 5 q-43 0 -82 -9 q-39 -9 -69 -29.5 q-30 -20.5 -48 -53.5 q-18 -33 -20 -81 l85 0 q3 57 39 77.5 q36 20.5 90 20.5 q20 0 40.5 -3 q20.5 -3 37 -12 q16.5 -9 27 -26 q10.5 -17 10.5 -45 q0 -24 -14 -36.5 q-14 -12.5 -38 -19 q-24 -6.5 -55.5 -10 q-31.5 -3.5 -66.5 -10.5 q-33 -6 -64.5 -15 q-31.5 -9 -56 -26.5 q-24.5 -17.5 -39.5 -45.5 q-15 -28 -15 -72 q0 -39 13.5 -66.5 q13.5 -27.5 37 -45 q23.5 -17.5 54.5 -25 q31 -7.5 66 -7.5 q54 0 100.5 18.5 q46.5 18.5 81.5 60.5 q0 -42 19.5 -60.5 q19.5 -18.5 52.5 -18.5 q39 0 61 13 ZM384 267 l0 -87 q0 -18 -9 -38.5 q-9 -20.5 -28 -38 q-19 -17.5 -49 -29 q-30 -11.5 -72 -11.5 q-19 0 -37.5 4 q-18.5 4 -32 13 q-13.5 9 -22 23.5 q-8.5 14.5 -8.5 35.5 q0 32 14.5 50.5 q14.5 18.5 37.5 28.5 q23 10 52 14.5 q29 4.5 57.5 8 q28.5 3.5 54.5 9 q26 5.5 42 17.5 Z" /><glyph glyph-name="atilde" unicode="ã" d="M443 711 l-52 0 q-5 -15 -15.5 -29.5 q-10.5 -14.5 -30.5 -14.5 q-16 0 -32.5 6.5 q-16.5 6.5 -33.5 14 q-17 7.5 -35.5 13.5 q-18.5 6 -38.5 6 q-24 0 -41 -9 q-17 -9 -29 -24 q-12 -15 -20.5 -35 q-8.5 -20 -14.5 -42 l52 0 q-2 19 15 30.5 q17 11.5 33 11.5 q14 0 31.5 -6 q17.5 -6 35.5 -13 q18 -8 35.5 -14 q17.5 -6 30.5 -6 q29 0 47.5 8.5 q18.5 8.5 31.5 22.5 q25 35 31 80 ZM522 2 l0 66 q-15 -5 -26 -5 q-20 0 -23.5 14 q-3.5 14 -3.5 44 l0 266 q0 45 -17 73 q-17 28 -45 43.5 q-28 15.5 -62.5 20.5 q-34.5 5 -69.5 5 q-43 0 -82 -9 q-39 -9 -69 -29.5 q-30 -20.5 -48 -53.5 q-18 -33 -20 -81 l85 0 q3 57 39 77.5 q36 20.5 90 20.5 q20 0 40.5 -3 q20.5 -3 37 -12 q16.5 -9 27 -26 q10.5 -17 10.5 -45 q0 -24 -14 -36.5 q-14 -12.5 -38 -19 q-24 -6.5 -55.5 -10 q-31.5 -3.5 -66.5 -10.5 q-33 -6 -64.5 -15 q-31.5 -9 -56 -26.5 q-24.5 -17.5 -39.5 -45.5 q-15 -28 -15 -72 q0 -39 13.5 -66.5 q13.5 -27.5 37 -45 q23.5 -17.5 54.5 -25 q31 -7.5 66 -7.5 q54 0 100.5 18.5 q46.5 18.5 81.5 60.5 q0 -42 19.5 -60.5 q19.5 -18.5 52.5 -18.5 q39 0 61 13 ZM384 267 l0 -87 q0 -18 -9 -38.5 q-9 -20.5 -28 -38 q-19 -17.5 -49 -29 q-30 -11.5 -72 -11.5 q-19 0 -37.5 4 q-18.5 4 -32 13 q-13.5 9 -22 23.5 q-8.5 14.5 -8.5 35.5 q0 32 14.5 50.5 q14.5 18.5 37.5 28.5 q23 10 52 14.5 q29 4.5 57.5 8 q28.5 3.5 54.5 9 q26 5.5 42 17.5 Z" /><glyph glyph-name="adieresis" unicode="ä" d="M130 696 l0 -104 l90 0 l0 104 l-90 0 ZM318 696 l0 -104 l90 0 l0 104 l-90 0 ZM522 2 l0 66 q-15 -5 -26 -5 q-20 0 -23.5 14 q-3.5 14 -3.5 44 l0 266 q0 45 -17 73 q-17 28 -45 43.5 q-28 15.5 -62.5 20.5 q-34.5 5 -69.5 5 q-43 0 -82 -9 q-39 -9 -69 -29.5 q-30 -20.5 -48 -53.5 q-18 -33 -20 -81 l85 0 q3 57 39 77.5 q36 20.5 90 20.5 q20 0 40.5 -3 q20.5 -3 37 -12 q16.5 -9 27 -26 q10.5 -17 10.5 -45 q0 -24 -14 -36.5 q-14 -12.5 -38 -19 q-24 -6.5 -55.5 -10 q-31.5 -3.5 -66.5 -10.5 q-33 -6 -64.5 -15 q-31.5 -9 -56 -26.5 q-24.5 -17.5 -39.5 -45.5 q-15 -28 -15 -72 q0 -39 13.5 -66.5 q13.5 -27.5 37 -45 q23.5 -17.5 54.5 -25 q31 -7.5 66 -7.5 q54 0 100.5 18.5 q46.5 18.5 81.5 60.5 q0 -42 19.5 -60.5 q19.5 -18.5 52.5 -18.5 q39 0 61 13 ZM384 267 l0 -87 q0 -18 -9 -38.5 q-9 -20.5 -28 -38 q-19 -17.5 -49 -29 q-30 -11.5 -72 -11.5 q-19 0 -37.5 4 q-18.5 4 -32 13 q-13.5 9 -22 23.5 q-8.5 14.5 -8.5 35.5 q0 32 14.5 50.5 q14.5 18.5 37.5 28.5 q23 10 52 14.5 q29 4.5 57.5 8 q28.5 3.5 54.5 9 q26 5.5 42 17.5 Z" /><glyph glyph-name="aring" unicode="å" d="M156 662 q0 -23 9 -43.5 q9 -20.5 24.5 -36 q15.5 -15.5 36 -24.5 q20.5 -9 43.5 -9 q23 0 43.5 9 q20.5 9 36 24.5 q15.5 15.5 24.5 36 q9 20.5 9 43.5 q0 23 -9 43.5 q-9 20.5 -24.5 36 q-15.5 15.5 -36 24.5 q-20.5 9 -43.5 9 q-23 0 -43.5 -9 q-20.5 -9 -36 -24.5 q-15.5 -15.5 -24.5 -36 q-9 -20.5 -9 -43.5 ZM201 662 q0 29 19.5 48.5 q19.5 19.5 48.5 19.5 q29 0 48.5 -19.5 q19.5 -19.5 19.5 -48.5 q0 -29 -19.5 -48.5 q-19.5 -19.5 -48.5 -19.5 q-29 0 -48.5 19.5 q-19.5 19.5 -19.5 48.5 ZM522 2 l0 66 q-15 -5 -26 -5 q-20 0 -23.5 14 q-3.5 14 -3.5 44 l0 266 q0 45 -17 73 q-17 28 -45 43.5 q-28 15.5 -62.5 20.5 q-34.5 5 -69.5 5 q-43 0 -82 -9 q-39 -9 -69 -29.5 q-30 -20.5 -48 -53.5 q-18 -33 -20 -81 l85 0 q3 57 39 77.5 q36 20.5 90 20.5 q20 0 40.5 -3 q20.5 -3 37 -12 q16.5 -9 27 -26 q10.5 -17 10.5 -45 q0 -24 -14 -36.5 q-14 -12.5 -38 -19 q-24 -6.5 -55.5 -10 q-31.5 -3.5 -66.5 -10.5 q-33 -6 -64.5 -15 q-31.5 -9 -56 -26.5 q-24.5 -17.5 -39.5 -45.5 q-15 -28 -15 -72 q0 -39 13.5 -66.5 q13.5 -27.5 37 -45 q23.5 -17.5 54.5 -25 q31 -7.5 66 -7.5 q54 0 100.5 18.5 q46.5 18.5 81.5 60.5 q0 -42 19.5 -60.5 q19.5 -18.5 52.5 -18.5 q39 0 61 13 ZM384 267 l0 -87 q0 -18 -9 -38.5 q-9 -20.5 -28 -38 q-19 -17.5 -49 -29 q-30 -11.5 -72 -11.5 q-19 0 -37.5 4 q-18.5 4 -32 13 q-13.5 9 -22 23.5 q-8.5 14.5 -8.5 35.5 q0 32 14.5 50.5 q14.5 18.5 37.5 28.5 q23 10 52 14.5 q29 4.5 57.5 8 q28.5 3.5 54.5 9 q26 5.5 42 17.5 Z" /><glyph glyph-name="ae" unicode="æ" d="M467 233 l379 0 q0 60 -11 114 q-11 54 -38 94.5 q-27 40.5 -71.5 64 q-44.5 23.5 -112.5 23.5 q-47 0 -93 -17.5 q-46 -17.5 -72 -57.5 q-12 24 -32 39 q-20 15 -44 23 q-24 8 -49 10.5 q-25 2.5 -48 2.5 q-43 0 -82 -9 q-39 -9 -69 -29.5 q-30 -20.5 -48 -53.5 q-18 -33 -20 -81 l85 0 q3 57 39 77.5 q36 20.5 90 20.5 q21 0 42 -2.5 q21 -2.5 37.5 -11 q16.5 -8.5 27 -24.5 q10.5 -16 10.5 -42 q0 -23 -10 -35.5 q-10 -12.5 -31 -20 q-21 -7.5 -54.5 -12.5 q-33.5 -5 -80.5 -14 q-33 -6 -64.5 -15 q-31.5 -9 -56 -26.5 q-24.5 -17.5 -39.5 -45.5 q-15 -28 -15 -72 q0 -39 13.5 -66.5 q13.5 -27.5 37 -45 q23.5 -17.5 55.5 -25 q32 -7.5 69 -7.5 q72 0 130.5 23.5 q58.5 23.5 87.5 76.5 q13 -29 32.5 -48 q19.5 -19 44 -30.5 q24.5 -11.5 52.5 -16.5 q28 -5 58 -5 q88 0 146.5 44.5 q58.5 44.5 77.5 129.5 l-87 0 q-12 -51 -47.5 -75.5 q-35.5 -24.5 -83.5 -24.5 q-39 0 -68.5 13.5 q-29.5 13.5 -48.5 37 q-19 23.5 -28.5 54.5 q-9.5 31 -9.5 65 ZM126 139 q0 24 8.5 40 q8.5 16 22.5 26.5 q14 10.5 33 16.5 q19 6 40 10 q20 4 42.5 7 q22.5 3 43.5 6.5 q21 3.5 39.5 8.5 q18.5 5 31.5 13 l0 -87 q0 -18 -9.5 -38.5 q-9.5 -20.5 -29 -38 q-19.5 -17.5 -50 -29 q-30.5 -11.5 -72.5 -11.5 q-19 0 -37.5 4 q-18.5 4 -32 13 q-13.5 9 -22 23.5 q-8.5 14.5 -8.5 35.5 ZM756 308 l-289 0 q0 32 10 58.5 q10 26.5 29 46 q19 19.5 46 30.5 q27 11 61 11 q34 0 60.5 -11.5 q26.5 -11.5 44.5 -31 q18 -19.5 27.5 -46.5 q9.5 -27 10.5 -57 Z" /><glyph glyph-name="ccedilla" unicode="ç" d="M415 351 l88 0 q-5 46 -24 79.5 q-19 33.5 -48.5 55.5 q-29.5 22 -68 32.5 q-38.5 10.5 -82.5 10.5 q-61 0 -107 -21.5 q-46 -21.5 -76.5 -59 q-30.5 -37.5 -45.5 -88 q-15 -50.5 -15 -108.5 q0 -55 14 -101 q14 -46 41 -80 q27 -34 67.5 -55 q40.5 -21 93.5 -25 l-53 -68 l17 -28 q11 4 20 6 q9 2 21 2 q20 0 33.5 -8.5 q13.5 -8.5 13.5 -22.5 q0 -9 -6 -14.5 q-6 -5.5 -15 -9.5 q-9 -4 -20 -5.5 q-11 -1.5 -21 -1.5 q-16 0 -32.5 4 q-16.5 4 -28.5 9 l-18 -44 q23 -8 45.5 -13.5 q22.5 -5.5 46.5 -5.5 q21 0 43 4.5 q22 4.5 40 15 q18 10.5 29.5 27.5 q11.5 17 11.5 42 q0 37 -26 55 q-26 18 -58 18 q-23 0 -33 -7 l-2 2 l33 42 q91 4 145 56 q54 52 68 143 l-87 0 q-8 -60 -43.5 -93 q-35.5 -33 -98.5 -33 q-40 0 -69 16 q-29 16 -47 42.5 q-18 26.5 -26.5 60.5 q-8.5 34 -8.5 70 q0 39 8 75.5 q8 36.5 26.5 64.5 q18.5 28 49.5 45 q31 17 77 17 q54 0 86 -27 q32 -27 42 -76 Z" /><glyph glyph-name="egrave" unicode="è" d="M135 731 l131 -143 l64 0 l-86 143 l-109 0 ZM423 308 l-297 0 q2 30 13 56.5 q11 26.5 30 46.5 q19 20 45.5 31.5 q26.5 11.5 59.5 11.5 q32 0 58.5 -11.5 q26.5 -11.5 46 -31 q19.5 -19.5 31 -46.5 q11.5 -27 13.5 -57 ZM505 164 l-84 0 q-11 -51 -45.5 -76 q-34.5 -25 -88.5 -25 q-42 0 -73 14 q-31 14 -51 37.5 q-20 23.5 -29 54 q-9 30.5 -8 64.5 l387 0 q2 47 -8.5 99 q-10.5 52 -38 96 q-27.5 44 -73 72.5 q-45.5 28.5 -114.5 28.5 q-53 0 -97.5 -20 q-44.5 -20 -77 -56 q-32.5 -36 -50.5 -85 q-18 -49 -18 -108 q2 -59 17.5 -109 q15.5 -50 46.5 -86 q31 -36 76.5 -56 q45.5 -20 107.5 -20 q88 0 146 44 q58 44 75 131 Z" /><glyph glyph-name="eacute" unicode="é" d="M294 731 l-86 -143 l64 0 l131 143 l-109 0 ZM423 308 l-297 0 q2 30 13 56.5 q11 26.5 30 46.5 q19 20 45.5 31.5 q26.5 11.5 59.5 11.5 q32 0 58.5 -11.5 q26.5 -11.5 46 -31 q19.5 -19.5 31 -46.5 q11.5 -27 13.5 -57 ZM505 164 l-84 0 q-11 -51 -45.5 -76 q-34.5 -25 -88.5 -25 q-42 0 -73 14 q-31 14 -51 37.5 q-20 23.5 -29 54 q-9 30.5 -8 64.5 l387 0 q2 47 -8.5 99 q-10.5 52 -38 96 q-27.5 44 -73 72.5 q-45.5 28.5 -114.5 28.5 q-53 0 -97.5 -20 q-44.5 -20 -77 -56 q-32.5 -36 -50.5 -85 q-18 -49 -18 -108 q2 -59 17.5 -109 q15.5 -50 46.5 -86 q31 -36 76.5 -56 q45.5 -20 107.5 -20 q88 0 146 44 q58 44 75 131 Z" /><glyph glyph-name="ecircumflex" unicode="ê" d="M222 731 l-103 -143 l77 0 l70 96 l69 -96 l84 0 l-104 143 l-93 0 ZM423 308 l-297 0 q2 30 13 56.5 q11 26.5 30 46.5 q19 20 45.5 31.5 q26.5 11.5 59.5 11.5 q32 0 58.5 -11.5 q26.5 -11.5 46 -31 q19.5 -19.5 31 -46.5 q11.5 -27 13.5 -57 ZM505 164 l-84 0 q-11 -51 -45.5 -76 q-34.5 -25 -88.5 -25 q-42 0 -73 14 q-31 14 -51 37.5 q-20 23.5 -29 54 q-9 30.5 -8 64.5 l387 0 q2 47 -8.5 99 q-10.5 52 -38 96 q-27.5 44 -73 72.5 q-45.5 28.5 -114.5 28.5 q-53 0 -97.5 -20 q-44.5 -20 -77 -56 q-32.5 -36 -50.5 -85 q-18 -49 -18 -108 q2 -59 17.5 -109 q15.5 -50 46.5 -86 q31 -36 76.5 -56 q45.5 -20 107.5 -20 q88 0 146 44 q58 44 75 131 Z" /><glyph glyph-name="edieresis" unicode="ë" d="M130 696 l0 -104 l90 0 l0 104 l-90 0 ZM318 696 l0 -104 l90 0 l0 104 l-90 0 ZM423 308 l-297 0 q2 30 13 56.5 q11 26.5 30 46.5 q19 20 45.5 31.5 q26.5 11.5 59.5 11.5 q32 0 58.5 -11.5 q26.5 -11.5 46 -31 q19.5 -19.5 31 -46.5 q11.5 -27 13.5 -57 ZM505 164 l-84 0 q-11 -51 -45.5 -76 q-34.5 -25 -88.5 -25 q-42 0 -73 14 q-31 14 -51 37.5 q-20 23.5 -29 54 q-9 30.5 -8 64.5 l387 0 q2 47 -8.5 99 q-10.5 52 -38 96 q-27.5 44 -73 72.5 q-45.5 28.5 -114.5 28.5 q-53 0 -97.5 -20 q-44.5 -20 -77 -56 q-32.5 -36 -50.5 -85 q-18 -49 -18 -108 q2 -59 17.5 -109 q15.5 -50 46.5 -86 q31 -36 76.5 -56 q45.5 -20 107.5 -20 q88 0 146 44 q58 44 75 131 Z" /><glyph glyph-name="igrave" unicode="ì" d="M-22 731 l130 -143 l64 0 l-86 143 l-108 0 ZM69 0 l85 0 l0 517 l-85 0 l0 -517 Z" /><glyph glyph-name="iacute" unicode="í" d="M136 731 l-86 -143 l64 0 l131 143 l-109 0 ZM69 0 l85 0 l0 517 l-85 0 l0 -517 Z" /><glyph glyph-name="icircumflex" unicode="î" d="M64 731 l-102 -143 l76 0 l70 96 l69 -96 l84 0 l-104 143 l-93 0 ZM69 0 l85 0 l0 517 l-85 0 l0 -517 Z" /><glyph glyph-name="idieresis" unicode="ï" d="M-27 696 l0 -104 l89 0 l0 104 l-89 0 ZM160 696 l0 -104 l90 0 l0 104 l-90 0 ZM69 0 l85 0 l0 517 l-85 0 l0 -517 Z" /><glyph glyph-name="eth" unicode="ð" d="M282 431 q44 0 75.5 -14 q31.5 -14 51.5 -38 q20 -24 29.5 -55 q9.5 -31 9.5 -66 q0 -47 -12.5 -83.5 q-12.5 -36.5 -34.5 -61 q-22 -24.5 -51.5 -37.5 q-29.5 -13 -62.5 -13 q-33 0 -62.5 13 q-29.5 13 -51.5 37.5 q-22 24.5 -34.5 61 q-12.5 36.5 -12.5 83.5 q0 77 39.5 125 q39.5 48 116.5 48 ZM272 506 q-57 0 -101 -20.5 q-44 -20.5 -74 -55 q-30 -34.5 -45.5 -79 q-15.5 -44.5 -15.5 -93.5 q0 -57 16 -106 q16 -49 48 -85.5 q32 -36.5 79 -57 q47 -20.5 108 -20.5 q62 0 108.5 20.5 q46.5 20.5 78.5 57 q32 36.5 48 85.5 q16 49 16 106 q0 115 -41.5 211.5 q-41.5 96.5 -132.5 171.5 l115 53 l-35 37 l-120 -56 q-20 16 -41.5 31 q-21.5 15 -35.5 25 l-70 -45 q14 -8 34 -21 q20 -13 36 -27 l-109 -51 l38 -40 l115 54 q12 -8 28 -23 q16 -15 33 -35 q17 -20 33 -43.5 q16 -23.5 28 -49.5 l-2 0 q-27 31 -63 43.5 q-36 12.5 -76 12.5 Z" /><glyph glyph-name="ntilde" unicode="ñ" d="M452 711 l-52 0 q-5 -15 -15.5 -29.5 q-10.5 -14.5 -30.5 -14.5 q-16 0 -32.5 6.5 q-16.5 6.5 -33.5 14 q-17 7.5 -35.5 13.5 q-18.5 6 -38.5 6 q-24 0 -41 -9 q-17 -9 -29 -24 q-12 -15 -20.5 -35 q-8.5 -20 -14.5 -42 l52 0 q-2 19 15 30.5 q17 11.5 33 11.5 q14 0 31.5 -6 q17.5 -6 35.5 -13 q18 -8 35.5 -14 q17.5 -6 30.5 -6 q29 0 47.5 8.5 q18.5 8.5 31.5 22.5 q25 35 31 80 ZM64 517 l0 -517 l85 0 l0 292 q0 35 9.5 64.5 q9.5 29.5 28.5 51.5 q19 22 47.5 34 q28.5 12 67.5 12 q49 0 77 -28 q28 -28 28 -76 l0 -350 l85 0 l0 340 q0 42 -8.5 76.5 q-8.5 34.5 -29.5 59.5 q-21 25 -55 39 q-34 14 -85 14 q-115 0 -168 -94 l-2 0 l0 82 l-80 0 Z" /><glyph glyph-name="ograve" unicode="ò" d="M153 731 l131 -143 l64 0 l-86 143 l-109 0 ZM126 258 q0 47 12.5 83.5 q12.5 36.5 34.5 61.5 q22 25 51.5 38 q29.5 13 62.5 13 q33 0 62.5 -13 q29.5 -13 51.5 -38 q22 -25 34.5 -61.5 q12.5 -36.5 12.5 -83.5 q0 -47 -12.5 -83.5 q-12.5 -36.5 -34.5 -61 q-22 -24.5 -51.5 -37.5 q-29.5 -13 -62.5 -13 q-33 0 -62.5 13 q-29.5 13 -51.5 37.5 q-22 24.5 -34.5 61 q-12.5 36.5 -12.5 83.5 ZM36 258 q0 -57 16 -106 q16 -49 48 -85.5 q32 -36.5 79 -57 q47 -20.5 108 -20.5 q62 0 108.5 20.5 q46.5 20.5 78.5 57 q32 36.5 48 85.5 q16 49 16 106 q0 57 -16 106.5 q-16 49.5 -48 86 q-32 36.5 -78.5 57.5 q-46.5 21 -108.5 21 q-61 0 -108 -21 q-47 -21 -79 -57.5 q-32 -36.5 -48 -86 q-16 -49.5 -16 -106.5 Z" /><glyph glyph-name="oacute" unicode="ó" d="M312 731 l-86 -143 l64 0 l131 143 l-109 0 ZM126 258 q0 47 12.5 83.5 q12.5 36.5 34.5 61.5 q22 25 51.5 38 q29.5 13 62.5 13 q33 0 62.5 -13 q29.5 -13 51.5 -38 q22 -25 34.5 -61.5 q12.5 -36.5 12.5 -83.5 q0 -47 -12.5 -83.5 q-12.5 -36.5 -34.5 -61 q-22 -24.5 -51.5 -37.5 q-29.5 -13 -62.5 -13 q-33 0 -62.5 13 q-29.5 13 -51.5 37.5 q-22 24.5 -34.5 61 q-12.5 36.5 -12.5 83.5 ZM36 258 q0 -57 16 -106 q16 -49 48 -85.5 q32 -36.5 79 -57 q47 -20.5 108 -20.5 q62 0 108.5 20.5 q46.5 20.5 78.5 57 q32 36.5 48 85.5 q16 49 16 106 q0 57 -16 106.5 q-16 49.5 -48 86 q-32 36.5 -78.5 57.5 q-46.5 21 -108.5 21 q-61 0 -108 -21 q-47 -21 -79 -57.5 q-32 -36.5 -48 -86 q-16 -49.5 -16 -106.5 Z" /><glyph glyph-name="ocircumflex" unicode="ô" d="M240 731 l-103 -143 l77 0 l70 96 l69 -96 l84 0 l-104 143 l-93 0 ZM126 258 q0 47 12.5 83.5 q12.5 36.5 34.5 61.5 q22 25 51.5 38 q29.5 13 62.5 13 q33 0 62.5 -13 q29.5 -13 51.5 -38 q22 -25 34.5 -61.5 q12.5 -36.5 12.5 -83.5 q0 -47 -12.5 -83.5 q-12.5 -36.5 -34.5 -61 q-22 -24.5 -51.5 -37.5 q-29.5 -13 -62.5 -13 q-33 0 -62.5 13 q-29.5 13 -51.5 37.5 q-22 24.5 -34.5 61 q-12.5 36.5 -12.5 83.5 ZM36 258 q0 -57 16 -106 q16 -49 48 -85.5 q32 -36.5 79 -57 q47 -20.5 108 -20.5 q62 0 108.5 20.5 q46.5 20.5 78.5 57 q32 36.5 48 85.5 q16 49 16 106 q0 57 -16 106.5 q-16 49.5 -48 86 q-32 36.5 -78.5 57.5 q-46.5 21 -108.5 21 q-61 0 -108 -21 q-47 -21 -79 -57.5 q-32 -36.5 -48 -86 q-16 -49.5 -16 -106.5 Z" /><glyph glyph-name="otilde" unicode="õ" d="M461 711 l-52 0 q-5 -15 -15.5 -29.5 q-10.5 -14.5 -30.5 -14.5 q-16 0 -32.5 6.5 q-16.5 6.5 -33.5 14 q-17 7.5 -35.5 13.5 q-18.5 6 -38.5 6 q-24 0 -41 -9 q-17 -9 -29 -24 q-12 -15 -20.5 -35 q-8.5 -20 -14.5 -42 l52 0 q-2 19 15 30.5 q17 11.5 33 11.5 q14 0 31.5 -6 q17.5 -6 35.5 -13 q18 -8 35.5 -14 q17.5 -6 30.5 -6 q29 0 47.5 8.5 q18.5 8.5 31.5 22.5 q25 35 31 80 ZM126 258 q0 47 12.5 83.5 q12.5 36.5 34.5 61.5 q22 25 51.5 38 q29.5 13 62.5 13 q33 0 62.5 -13 q29.5 -13 51.5 -38 q22 -25 34.5 -61.5 q12.5 -36.5 12.5 -83.5 q0 -47 -12.5 -83.5 q-12.5 -36.5 -34.5 -61 q-22 -24.5 -51.5 -37.5 q-29.5 -13 -62.5 -13 q-33 0 -62.5 13 q-29.5 13 -51.5 37.5 q-22 24.5 -34.5 61 q-12.5 36.5 -12.5 83.5 ZM36 258 q0 -57 16 -106 q16 -49 48 -85.5 q32 -36.5 79 -57 q47 -20.5 108 -20.5 q62 0 108.5 20.5 q46.5 20.5 78.5 57 q32 36.5 48 85.5 q16 49 16 106 q0 57 -16 106.5 q-16 49.5 -48 86 q-32 36.5 -78.5 57.5 q-46.5 21 -108.5 21 q-61 0 -108 -21 q-47 -21 -79 -57.5 q-32 -36.5 -48 -86 q-16 -49.5 -16 -106.5 Z" /><glyph glyph-name="odieresis" unicode="ö" d="M148 696 l0 -104 l90 0 l0 104 l-90 0 ZM336 696 l0 -104 l90 0 l0 104 l-90 0 ZM126 258 q0 47 12.5 83.5 q12.5 36.5 34.5 61.5 q22 25 51.5 38 q29.5 13 62.5 13 q33 0 62.5 -13 q29.5 -13 51.5 -38 q22 -25 34.5 -61.5 q12.5 -36.5 12.5 -83.5 q0 -47 -12.5 -83.5 q-12.5 -36.5 -34.5 -61 q-22 -24.5 -51.5 -37.5 q-29.5 -13 -62.5 -13 q-33 0 -62.5 13 q-29.5 13 -51.5 37.5 q-22 24.5 -34.5 61 q-12.5 36.5 -12.5 83.5 ZM36 258 q0 -57 16 -106 q16 -49 48 -85.5 q32 -36.5 79 -57 q47 -20.5 108 -20.5 q62 0 108.5 20.5 q46.5 20.5 78.5 57 q32 36.5 48 85.5 q16 49 16 106 q0 57 -16 106.5 q-16 49.5 -48 86 q-32 36.5 -78.5 57.5 q-46.5 21 -108.5 21 q-61 0 -108 -21 q-47 -21 -79 -57.5 q-32 -36.5 -48 -86 q-16 -49.5 -16 -106.5 Z" /><glyph glyph-name="divide" unicode="÷" d="M236 47 q0 -26 19.5 -44.5 q19.5 -18.5 45.5 -18.5 q25 0 44 19.5 q19 19.5 19 43.5 q0 26 -19 45 q-19 19 -45 19 q-26 0 -45 -19 q-19 -19 -19 -45 ZM236 459 q0 -26 19.5 -45 q19.5 -19 45.5 -19 q25 0 44 20 q19 20 19 44 q0 26 -19 45 q-19 19 -45 19 q-26 0 -45 -19 q-19 -19 -19 -45 ZM48 287 l0 -68 l504 0 l0 68 l-504 0 Z" /><glyph glyph-name="oslash" unicode="ø" d="M480 443 l60 66 l-27 26 l-58 -65 q-32 29 -73 44 q-41 15 -95 15 q-61 0 -108 -21 q-47 -21 -79 -57.5 q-32 -36.5 -48 -86 q-16 -49.5 -16 -106.5 q0 -55 15 -102.5 q15 -47.5 45 -84.5 l-62 -69 l28 -23 l60 66 q31 -27 72 -41.5 q41 -14.5 93 -14.5 q62 0 108.5 20.5 q46.5 20.5 78.5 57 q32 36.5 48 85.5 q16 49 16 106 q0 55 -14.5 102.5 q-14.5 47.5 -43.5 82.5 ZM178 108 l242 269 q13 -23 20.5 -52.5 q7.5 -29.5 7.5 -66.5 q0 -47 -12.5 -83.5 q-12.5 -36.5 -34.5 -61 q-22 -24.5 -51.5 -37.5 q-29.5 -13 -62.5 -13 q-64 0 -109 45 ZM398 407 l-242 -270 q-14 25 -22 55 q-8 30 -8 66 q0 47 12.5 83.5 q12.5 36.5 34.5 61.5 q22 25 51.5 38 q29.5 13 62.5 13 q67 0 111 -47 Z" /><glyph glyph-name="ugrave" unicode="ù" d="M144 731 l131 -143 l64 0 l-86 143 l-109 0 ZM492 0 l0 517 l-85 0 l0 -292 q0 -35 -9.5 -64.5 q-9.5 -29.5 -28.5 -51.5 q-19 -22 -47.5 -34 q-28.5 -12 -67.5 -12 q-49 0 -77 28 q-28 28 -28 76 l0 350 l-85 0 l0 -340 q0 -42 8.5 -76.5 q8.5 -34.5 29.5 -59.5 q21 -25 55 -38.5 q34 -13.5 85 -13.5 q57 0 99 22.5 q42 22.5 69 70.5 l2 0 l0 -82 l80 0 Z" /><glyph glyph-name="uacute" unicode="ú" d="M303 731 l-86 -143 l64 0 l131 143 l-109 0 ZM492 0 l0 517 l-85 0 l0 -292 q0 -35 -9.5 -64.5 q-9.5 -29.5 -28.5 -51.5 q-19 -22 -47.5 -34 q-28.5 -12 -67.5 -12 q-49 0 -77 28 q-28 28 -28 76 l0 350 l-85 0 l0 -340 q0 -42 8.5 -76.5 q8.5 -34.5 29.5 -59.5 q21 -25 55 -38.5 q34 -13.5 85 -13.5 q57 0 99 22.5 q42 22.5 69 70.5 l2 0 l0 -82 l80 0 Z" /><glyph glyph-name="ucircumflex" unicode="û" d="M231 731 l-103 -143 l77 0 l70 96 l69 -96 l84 0 l-104 143 l-93 0 ZM492 0 l0 517 l-85 0 l0 -292 q0 -35 -9.5 -64.5 q-9.5 -29.5 -28.5 -51.5 q-19 -22 -47.5 -34 q-28.5 -12 -67.5 -12 q-49 0 -77 28 q-28 28 -28 76 l0 350 l-85 0 l0 -340 q0 -42 8.5 -76.5 q8.5 -34.5 29.5 -59.5 q21 -25 55 -38.5 q34 -13.5 85 -13.5 q57 0 99 22.5 q42 22.5 69 70.5 l2 0 l0 -82 l80 0 Z" /><glyph glyph-name="udieresis" unicode="ü" d="M139 696 l0 -104 l90 0 l0 104 l-90 0 ZM327 696 l0 -104 l90 0 l0 104 l-90 0 ZM492 0 l0 517 l-85 0 l0 -292 q0 -35 -9.5 -64.5 q-9.5 -29.5 -28.5 -51.5 q-19 -22 -47.5 -34 q-28.5 -12 -67.5 -12 q-49 0 -77 28 q-28 28 -28 76 l0 350 l-85 0 l0 -340 q0 -42 8.5 -76.5 q8.5 -34.5 29.5 -59.5 q21 -25 55 -38.5 q34 -13.5 85 -13.5 q57 0 99 22.5 q42 22.5 69 70.5 l2 0 l0 -82 l80 0 Z" /><glyph glyph-name="yacute" unicode="ý" d="M275 731 l-86 -143 l64 0 l131 143 l-109 0 ZM267 -68 l225 585 l-90 0 l-145 -423 l-2 0 l-151 423 l-96 0 l205 -514 l-35 -87 q-12 -23 -28 -35 q-16 -12 -42 -12 q-13 0 -25.5 4 q-12.5 4 -24.5 8 l0 -78 q14 -5 29 -7 q15 -2 30 -2 q29 0 50 7.5 q21 7.5 38.5 24 q17.5 16.5 32 42.5 q14.5 26 29.5 64 Z" /><glyph glyph-name="thorn" unicode="þ" d="M152 447 l0 267 l-85 0 l0 -911 l85 0 l0 266 l2 0 q14 -23 34.5 -38.5 q20.5 -15.5 43.5 -24.5 q23 -9 46.5 -13 q23.5 -4 42.5 -4 q59 0 103.5 21 q44.5 21 74 57.5 q29.5 36.5 44 85.5 q14.5 49 14.5 104 q0 55 -15 104 q-15 49 -44.5 86.5 q-29.5 37.5 -74 59.5 q-44.5 22 -104.5 22 q-54 0 -99 -19.5 q-45 -19.5 -66 -62.5 l-2 0 ZM467 263 q0 -38 -8 -74 q-8 -36 -26 -64 q-18 -28 -47.5 -45 q-29.5 -17 -73.5 -17 q-44 0 -75 16.5 q-31 16.5 -50.5 43.5 q-19.5 27 -28.5 62.5 q-9 35.5 -9 73.5 q0 36 8.5 71 q8.5 35 27.5 62.5 q19 27.5 49 44.5 q30 17 73 17 q41 0 71.5 -16 q30.5 -16 50 -43 q19.5 -27 29 -61.5 q9.5 -34.5 9.5 -70.5 Z" /><glyph glyph-name="ydieresis" unicode="ÿ" d="M111 696 l0 -104 l90 0 l0 104 l-90 0 ZM299 696 l0 -104 l90 0 l0 104 l-90 0 ZM267 -68 l225 585 l-90 0 l-145 -423 l-2 0 l-151 423 l-96 0 l205 -514 l-35 -87 q-12 -23 -28 -35 q-16 -12 -42 -12 q-13 0 -25.5 4 q-12.5 4 -24.5 8 l0 -78 q14 -5 29 -7 q15 -2 30 -2 q29 0 50 7.5 q21 7.5 38.5 24 q17.5 16.5 32 42.5 q14.5 26 29.5 64 Z" /><glyph glyph-name="Aogonek" unicode="&#x104;" d="M548 -209 q-9 0 -24.5 1.5 q-15.5 1.5 -30.5 9.5 q-15 8 -26 24.5 q-11 16.5 -11 46.5 q0 7 3.5 19.5 q3.5 12.5 14.5 29 q11 16.5 33 36.5 q22 20 58 42 l-14 0 l-78 215 l-302 0 l-80 -215 l-97 0 l278 714 l105 0 l279 -714 l-50 0 q-25 -21 -41 -37.5 q-16 -16.5 -25 -31 q-9 -14.5 -12.5 -26.5 q-3.5 -12 -3.5 -22 q0 -16 9 -29 q9 -13 29 -13 q23 0 37 8 q14 8 25 22 l32 -18 q-20 -35 -48.5 -48.5 q-28.5 -13.5 -59.5 -13.5 ZM443 295 l-119 333 l-2 0 l-121 -333 l242 0 Z" /><glyph glyph-name="aogonek" unicode="&#x105;" d="M414 -209 q-9 0 -24.5 1.5 q-15.5 1.5 -30.5 9.5 q-15 8 -26 24.5 q-11 16.5 -11 46.5 q0 7 3.5 19 q3.5 12 14 28 q10.5 16 30.5 35.5 q20 19.5 54 40.5 q-35 16 -35 72 q-35 -42 -81.5 -60.5 q-46.5 -18.5 -100.5 -18.5 q-35 0 -66 7.5 q-31 7.5 -54.5 25 q-23.5 17.5 -37 45 q-13.5 27.5 -13.5 66.5 q0 44 15 72 q15 28 39.5 45.5 q24.5 17.5 56 26.5 q31.5 9 64.5 15 q35 7 66.5 10.5 q31.5 3.5 55.5 10 q24 6.5 38 19 q14 12.5 14 36.5 q0 28 -10.5 45 q-10.5 17 -27 26 q-16.5 9 -37 12 q-20.5 3 -40.5 3 q-54 0 -90 -20.5 q-36 -20.5 -39 -77.5 l-85 0 q2 48 20 81 q18 33 48 53.5 q30 20.5 68.5 29.5 q38.5 9 82.5 9 q35 0 69.5 -5 q34.5 -5 62.5 -20.5 q28 -15.5 45 -43.5 q17 -28 17 -73 l0 -266 q0 -30 3.5 -44 q3.5 -14 23.5 -14 q9 0 26 5 l0 -66 q-22 -13 -61 -13 l-2 0 q-41 -36 -55 -61.5 q-14 -25.5 -14 -44.5 q0 -16 9 -29 q9 -13 29 -13 q23 0 37 8 q14 8 25 22 l32 -18 q-20 -35 -48.5 -48.5 q-28.5 -13.5 -59.5 -13.5 ZM226 63 q42 0 72 11.5 q30 11.5 49 29 q19 17.5 28 38 q9 20.5 9 38.5 l0 87 q-16 -13 -42 -18 q-26 -5 -54.5 -9 q-28.5 -4 -57.5 -8 q-29 -4 -52 -14 q-23 -10 -37.5 -28.5 q-14.5 -18.5 -14.5 -50.5 q0 -21 8.5 -35.5 q8.5 -14.5 22 -23.5 q13.5 -9 31.5 -13 q18 -4 38 -4 Z" /><glyph glyph-name="Cacute" unicode="&#x106;" d="M580 499 q-16 76 -70.5 114 q-54.5 38 -129.5 38 q-64 0 -109.5 -24 q-45.5 -24 -75 -64.5 q-29.5 -40.5 -43.5 -92.5 q-14 -52 -14 -108 q0 -61 14 -115.5 q14 -54.5 43.5 -95 q29.5 -40.5 75.5 -64.5 q46 -24 110 -24 q47 0 83.5 15.5 q36.5 15.5 63 43 q26.5 27.5 41.5 65.5 q15 38 18 82 l95 0 q-14 -135 -93 -210 q-79 -75 -216 -75 q-83 0 -145 28.5 q-62 28.5 -103 78.5 q-41 50 -61.5 118 q-20.5 68 -20.5 146 q0 78 22 146.5 q22 68.5 64.5 119.5 q42.5 51 106 80.5 q63.5 29.5 145.5 29.5 q56 0 106 -15 q50 -15 89 -44 q39 -29 65 -72.5 q26 -43.5 34 -100.5 l-95 0 l0 0 ZM498 908 l-131 -143 l-64 0 l86 143 l109 0 Z" /><glyph glyph-name="cacute" unicode="&#x107;" d="M415 351 q-10 49 -42 76 q-32 27 -86 27 q-46 0 -77 -17 q-31 -17 -49.5 -45 q-18.5 -28 -26.5 -64.5 q-8 -36.5 -8 -75.5 q0 -36 8.5 -70 q8.5 -34 26.5 -60.5 q18 -26.5 47 -42.5 q29 -16 69 -16 q63 0 98.5 33 q35.5 33 43.5 93 l87 0 q-14 -96 -71.5 -148 q-57.5 -52 -156.5 -52 q-59 0 -104.5 19 q-45.5 19 -76 54 q-30.5 35 -46 83.5 q-15.5 48.5 -15.5 106.5 q0 58 15 108.5 q15 50.5 45.5 88 q30.5 37.5 76.5 59 q46 21.5 107 21.5 q44 0 82.5 -10.5 q38.5 -10.5 68 -32.5 q29.5 -22 48.5 -55.5 q19 -33.5 24 -79.5 l-88 0 l0 0 ZM406 731 l-131 -143 l-64 0 l86 143 l109 0 Z" /><glyph glyph-name="Eogonek" unicode="&#x118;" d="M466 -209 q-9 0 -24.5 1.5 q-15.5 1.5 -30.5 9.5 q-15 8 -26 24.5 q-11 16.5 -11 46.5 q0 7 3.5 19.5 q3.5 12.5 14.5 29 q11 16.5 33 36.5 q22 20 58 42 l-405 0 l0 714 l493 0 l0 -80 l-398 0 l0 -227 l371 0 l0 -80 l-371 0 l0 -247 l401 0 l0 -80 l-50 0 q-25 -21 -41 -37.5 q-16 -16.5 -25 -31 q-9 -14.5 -12.5 -26.5 q-3.5 -12 -3.5 -22 q0 -16 9 -29 q9 -13 29 -13 q23 0 37 8 q14 8 25 22 l32 -18 q-20 -35 -48.5 -48.5 q-28.5 -13.5 -59.5 -13.5 Z" /><glyph glyph-name="eogonek" unicode="&#x119;" d="M250 -209 q-9 0 -24.5 1.5 q-15.5 1.5 -30.5 9.5 q-15 8 -26 24.5 q-11 16.5 -11 46.5 q0 6 3 18 q3 12 12.5 27.5 q9.5 15.5 28 34 q18.5 18.5 49.5 38.5 q-53 5 -93 27 q-40 22 -66.5 57.5 q-26.5 35.5 -40.5 82.5 q-14 47 -15 102 q0 58 18 107.5 q18 49.5 50.5 85.5 q32.5 36 77 56 q44.5 20 97.5 20 q69 0 114.5 -28.5 q45.5 -28.5 73 -72.5 q27.5 -44 38 -96 q10.5 -52 8.5 -99 l-387 0 q-1 -34 8 -64.5 q9 -30.5 29 -54 q20 -23.5 51 -37.5 q31 -14 73 -14 q54 0 88.5 25 q34.5 25 45.5 76 l84 0 q-17 -85 -71.5 -128.5 q-54.5 -43.5 -137.5 -46.5 q-42 -36 -56 -61 q-14 -25 -14 -45 q0 -16 9 -29 q9 -13 29 -13 q23 0 37 8 q14 8 25 22 l32 -18 q-20 -35 -48.5 -48.5 q-28.5 -13.5 -59.5 -13.5 ZM423 308 q-2 30 -13.5 57 q-11.5 27 -31 46.5 q-19.5 19.5 -46 31 q-26.5 11.5 -58.5 11.5 q-33 0 -59.5 -11.5 q-26.5 -11.5 -45.5 -31.5 q-19 -20 -30 -46.5 q-11 -26.5 -13 -56.5 l297 0 Z" /><glyph glyph-name="dotlessi" unicode="&#x131;" d="M69 0 l85 0 l0 517 l-85 0 l0 -517 Z" /><glyph glyph-name="Lslash" unicode="&#x141;" d="M78 240 l0 -240 l473 0 l0 80 l-378 0 l0 228 l228 160 l0 76 l-228 -160 l0 330 l-95 0 l0 -398 l-78 -56 l0 -76 l78 56 Z" /><glyph glyph-name="lslash" unicode="&#x142;" d="M69 321 l0 -321 l85 0 l0 389 l70 56 l0 71 l-70 -56 l0 254 l-85 0 l0 -321 l-69 -56 l0 -71 l69 55 Z" /><glyph glyph-name="Nacute" unicode="&#x143;" d="M178 714 l376 -579 l2 0 l0 579 l90 0 l0 -714 l-104 0 l-373 573 l-2 0 l0 -573 l-90 0 l0 714 l101 0 ZM508 908 l-131 -143 l-64 0 l86 143 l109 0 Z" /><glyph glyph-name="nacute" unicode="&#x144;" d="M144 517 l0 -82 l2 0 q53 94 168 94 q51 0 85 -14 q34 -14 55 -39 q21 -25 29.5 -59.5 q8.5 -34.5 8.5 -76.5 l0 -340 l-85 0 l0 350 q0 48 -28 76 q-28 28 -77 28 q-39 0 -67.5 -12 q-28.5 -12 -47.5 -34 q-19 -22 -28.5 -51.5 q-9.5 -29.5 -9.5 -64.5 l0 -292 l-85 0 l0 517 l80 0 ZM415 731 l-131 -143 l-64 0 l86 143 l109 0 Z" /><glyph glyph-name="OE" unicode="&#x152;" d="M551 69 l0 -69 l483 0 l0 80 l-388 0 l0 247 l350 0 l0 80 l-350 0 l0 227 l382 0 l0 80 l-477 0 l0 -59 l-2 0 q-11 20 -30.5 34 q-19.5 14 -43.5 23.5 q-24 9.5 -50.5 14 q-26.5 4.5 -51.5 4.5 q-79 0 -141.5 -28.5 q-62.5 -28.5 -105.5 -79 q-43 -50.5 -65.5 -119 q-22.5 -68.5 -22.5 -149.5 q0 -79 21.5 -146.5 q21.5 -67.5 63 -117.5 q41.5 -50 102.5 -78.5 q61 -28.5 140 -28.5 q27 0 54.5 5.5 q27.5 5.5 52 16 q24.5 10.5 44.5 26.5 q20 16 33 37 l2 0 ZM372 63 q-58 0 -103 22.5 q-45 22.5 -75 61.5 q-30 39 -45.5 91.5 q-15.5 52.5 -15.5 112.5 q0 60 15 114.5 q15 54.5 45 96 q30 41.5 75 65.5 q45 24 106 24 q57 0 99.5 -23 q42.5 -23 62.5 -54 q11 -17 13 -35 q2 -18 2 -34 l0 -301 q0 -31 -14 -57 q-14 -26 -38 -44.5 q-24 -18.5 -56.5 -29 q-32.5 -10.5 -70.5 -10.5 Z" /><glyph glyph-name="oe" unicode="&#x153;" d="M415 260 q0 -35 -6.5 -70 q-6.5 -35 -23 -63.5 q-16.5 -28.5 -44 -46 q-27.5 -17.5 -70.5 -17.5 q-39 0 -67 16.5 q-28 16.5 -45 43 q-17 26.5 -25 59.5 q-8 33 -8 66 q0 38 7.5 75 q7.5 37 24.5 66 q17 29 45 47 q28 18 68 18 q44 0 72 -17 q28 -17 44 -44.5 q16 -27.5 22 -62 q6 -34.5 6 -70.5 ZM774 308 l-285 0 q-1 64 38 105 q39 41 106 41 q67 0 104 -40 q37 -40 37 -106 ZM489 233 l375 0 q3 61 -8.5 115 q-11.5 54 -39.5 94 q-28 40 -73 63.5 q-45 23.5 -110 23.5 q-55 0 -105.5 -22.5 q-50.5 -22.5 -77.5 -68.5 q-26 54 -72.5 72.5 q-46.5 18.5 -106.5 18.5 q-60 0 -104 -21 q-44 -21 -73.5 -57.5 q-29.5 -36.5 -43.5 -85.5 q-14 -49 -14 -106 q0 -56 14 -105 q14 -49 42.5 -86 q28.5 -37 73 -58 q44.5 -21 105.5 -21 q58 0 106.5 22.5 q48.5 22.5 72.5 78.5 q24 -56 73.5 -78.5 q49.5 -22.5 114.5 -22.5 q170 0 221 175 l-81 0 q-15 -48 -52 -74.5 q-37 -26.5 -88 -26.5 q-38 0 -66.5 14 q-28.5 14 -47 37.5 q-18.5 23.5 -27.5 54 q-9 30.5 -8 64.5 Z" /><glyph glyph-name="Sacute" unicode="&#x15a;" d="M491 505 q-8 77 -55.5 111.5 q-47.5 34.5 -121.5 34.5 q-30 0 -59 -6 q-29 -6 -51.5 -20 q-22.5 -14 -36 -37.5 q-13.5 -23.5 -13.5 -58.5 q0 -33 19.5 -53.5 q19.5 -20.5 52 -33.5 q32.5 -13 73.5 -21.5 q41 -8.5 83.5 -18.5 q42.5 -10 83.5 -23.5 q41 -13.5 73.5 -36.5 q32.5 -23 52 -58 q19.5 -35 19.5 -88 q0 -57 -25.5 -97.5 q-25.5 -40.5 -65.5 -66 q-40 -25.5 -89.5 -37 q-49.5 -11.5 -98.5 -11.5 q-60 0 -113.5 15 q-53.5 15 -94 45.5 q-40.5 30.5 -64 78 q-23.5 47.5 -23.5 112.5 l90 0 q0 -45 17.5 -77.5 q17.5 -32.5 46 -53.5 q28.5 -21 66.5 -31 q38 -10 78 -10 q32 0 64.5 6 q32.5 6 58.5 20.5 q26 14.5 42 39.5 q16 25 16 64 q0 37 -19.5 60 q-19.5 23 -52 37.5 q-32.5 14.5 -73.5 23.5 q-41 9 -83.5 18.5 q-42.5 9.5 -83.5 22 q-41 12.5 -73.5 33 q-32.5 20.5 -52 53 q-19.5 32.5 -19.5 81.5 q0 54 22 93.5 q22 39.5 58.5 65 q36.5 25.5 83 38 q46.5 12.5 95.5 12.5 q55 0 102 -13 q47 -13 82.5 -41 q35.5 -28 56 -70.5 q20.5 -42.5 22.5 -101.5 l-90 0 l0 0 ZM471 908 l-131 -143 l-64 0 l86 143 l109 0 Z" /><glyph glyph-name="sacute" unicode="&#x15b;" d="M116 163 q1 -28 13 -47.5 q12 -19.5 31.5 -31 q19.5 -11.5 44 -16.5 q24.5 -5 50.5 -5 q20 0 42 3 q22 3 40.5 11 q18.5 8 30.5 23.5 q12 15.5 12 39.5 q0 33 -25 50 q-25 17 -62.5 27.5 q-37.5 10.5 -81.5 19 q-44 8.5 -81.5 24 q-37.5 15.5 -62.5 43.5 q-25 28 -25 78 q0 39 17.5 67 q17.5 28 45 45.5 q27.5 17.5 62 26 q34.5 8.5 68.5 8.5 q44 0 81 -7.5 q37 -7.5 65.5 -26 q28.5 -18.5 45.5 -50 q17 -31.5 20 -78.5 l-85 0 q-2 25 -13 41.5 q-11 16.5 -28 26.5 q-17 10 -37.5 14.5 q-20.5 4.5 -41.5 4.5 q-19 0 -38.5 -3 q-19.5 -3 -35.5 -10.5 q-16 -7.5 -26 -20 q-10 -12.5 -10 -32.5 q0 -22 15.5 -36.5 q15.5 -14.5 39.5 -24 q24 -9.5 54 -16 q30 -6.5 60 -13.5 q32 -7 62.5 -17 q30.5 -10 54 -26.5 q23.5 -16.5 38 -41.5 q14.5 -25 14.5 -62 q0 -47 -19.5 -78 q-19.5 -31 -51 -50 q-31.5 -19 -71 -26.5 q-39.5 -7.5 -78.5 -7.5 q-43 0 -82 9 q-39 9 -69 29.5 q-30 20.5 -48 54 q-18 33.5 -20 81.5 l85 0 l0 0 ZM387 731 l-131 -143 l-64 0 l86 143 l109 0 Z" /><glyph glyph-name="Scaron" unicode="&#x160;" d="M371 765 l103 143 l-77 0 l-70 -96 l-69 96 l-84 0 l104 -143 l93 0 ZM491 505 l90 0 q-2 59 -22.5 101.5 q-20.5 42.5 -56 70.5 q-35.5 28 -82.5 41 q-47 13 -102 13 q-49 0 -95.5 -12.5 q-46.5 -12.5 -83 -38 q-36.5 -25.5 -58.5 -65 q-22 -39.5 -22 -93.5 q0 -49 19.5 -81.5 q19.5 -32.5 52 -53 q32.5 -20.5 73.5 -33 q41 -12.5 83.5 -22 q42.5 -9.5 83.5 -18.5 q41 -9 73.5 -23.5 q32.5 -14.5 52 -37.5 q19.5 -23 19.5 -60 q0 -39 -16 -64 q-16 -25 -42 -39.5 q-26 -14.5 -58.5 -20.5 q-32.5 -6 -64.5 -6 q-40 0 -78 10 q-38 10 -66.5 31 q-28.5 21 -46 53.5 q-17.5 32.5 -17.5 77.5 l-90 0 q0 -65 23.5 -112.5 q23.5 -47.5 64 -78 q40.5 -30.5 94 -45.5 q53.5 -15 113.5 -15 q49 0 98.5 11.5 q49.5 11.5 89.5 37 q40 25.5 65.5 66 q25.5 40.5 25.5 97.5 q0 53 -19.5 88 q-19.5 35 -52 58 q-32.5 23 -73.5 36.5 q-41 13.5 -83.5 23.5 q-42.5 10 -83.5 18.5 q-41 8.5 -73.5 21.5 q-32.5 13 -52 33.5 q-19.5 20.5 -19.5 53.5 q0 35 13.5 58.5 q13.5 23.5 36 37.5 q22.5 14 51.5 20 q29 6 59 6 q74 0 121.5 -34.5 q47.5 -34.5 55.5 -111.5 Z" /><glyph glyph-name="scaron" unicode="&#x161;" d="M297 588 l103 143 l-77 0 l-70 -96 l-69 96 l-84 0 l104 -143 l93 0 ZM116 163 l-85 0 q2 -48 20 -81.5 q18 -33.5 48 -54 q30 -20.5 69 -29.5 q39 -9 82 -9 q39 0 78.5 7.5 q39.5 7.5 71 26.5 q31.5 19 51 50 q19.5 31 19.5 78 q0 37 -14.5 62 q-14.5 25 -38 41.5 q-23.5 16.5 -54 26.5 q-30.5 10 -62.5 17 q-30 7 -60 13.5 q-30 6.5 -54 16 q-24 9.5 -39.5 24 q-15.5 14.5 -15.5 36.5 q0 20 10 32.5 q10 12.5 26 20 q16 7.5 35.5 10.5 q19.5 3 38.5 3 q21 0 41.5 -4.5 q20.5 -4.5 37.5 -14.5 q17 -10 28 -26.5 q11 -16.5 13 -41.5 l85 0 q-3 47 -20 78.5 q-17 31.5 -45.5 50 q-28.5 18.5 -65.5 26 q-37 7.5 -81 7.5 q-34 0 -68.5 -8.5 q-34.5 -8.5 -62 -26 q-27.5 -17.5 -45 -45.5 q-17.5 -28 -17.5 -67 q0 -50 25 -78 q25 -28 62.5 -43.5 q37.5 -15.5 81.5 -24 q44 -8.5 81.5 -19 q37.5 -10.5 62.5 -27.5 q25 -17 25 -50 q0 -24 -12 -39.5 q-12 -15.5 -30.5 -23.5 q-18.5 -8 -40.5 -11 q-22 -3 -42 -3 q-26 0 -50.5 5 q-24.5 5 -44 16.5 q-19.5 11.5 -31.5 31 q-12 19.5 -13 47.5 Z" /><glyph glyph-name="Ydieresis" unicode="&#x178;" d="M185 873 l0 -104 l90 0 l0 104 l-90 0 ZM373 873 l0 -104 l90 0 l0 104 l-90 0 ZM373 292 l273 422 l-108 0 l-209 -340 l-214 340 l-113 0 l276 -422 l0 -292 l95 0 l0 292 Z" /><glyph glyph-name="Zacute" unicode="&#x179;" d="M466 634 l-410 0 l0 80 l522 0 l0 -80 l-443 -554 l455 0 l0 -80 l-568 0 l0 80 l444 554 ZM453 908 l-131 -143 l-64 0 l86 143 l109 0 Z" /><glyph glyph-name="zacute" unicode="&#x17a;" d="M334 442 l-292 0 l0 75 l402 0 l0 -58 l-316 -384 l330 0 l0 -75 l-436 0 l0 65 l312 377 ZM377 731 l-131 -143 l-64 0 l86 143 l109 0 Z" /><glyph glyph-name="Zdotaccent" unicode="&#x17b;" d="M466 634 l-410 0 l0 80 l522 0 l0 -80 l-443 -554 l455 0 l0 -80 l-568 0 l0 80 l444 554 ZM260 769 l0 104 l90 0 l0 -104 l-90 0 Z" /><glyph glyph-name="zdotaccent" unicode="&#x17c;" d="M334 442 l-292 0 l0 75 l402 0 l0 -58 l-316 -384 l330 0 l0 -75 l-436 0 l0 65 l312 377 ZM195 592 l0 104 l90 0 l0 -104 l-90 0 Z" /><glyph glyph-name="Zcaron" unicode="&#x17d;" d="M353 765 l103 143 l-77 0 l-70 -96 l-69 96 l-84 0 l104 -143 l93 0 ZM22 80 l0 -80 l568 0 l0 80 l-455 0 l443 554 l0 80 l-522 0 l0 -80 l410 0 l-444 -554 Z" /><glyph glyph-name="zcaron" unicode="&#x17e;" d="M287 588 l103 143 l-77 0 l-70 -96 l-69 96 l-84 0 l104 -143 l93 0 ZM22 65 l0 -65 l436 0 l0 75 l-330 0 l316 384 l0 58 l-402 0 l0 -75 l292 0 l-312 -377 Z" /><glyph glyph-name="uni018F" unicode="&#x18f;" d="M370 -16 q-88 0 -151 30.5 q-63 30.5 -103 82.5 q-40 52 -59 119 q-19 67 -19 141 q0 12 0 19.5 q0 7.5 2 19.5 l568 0 q-6 51 -24.5 98 q-18.5 47 -49 82 q-30.5 35 -73.5 56 q-43 21 -98 21 q-39 0 -74 -10.5 q-35 -10.5 -63.5 -30 q-28.5 -19.5 -49.5 -46 q-21 -26.5 -32 -58.5 l-94 0 q10 54 40.5 95.5 q30.5 41.5 73 70 q42.5 28.5 94 43 q51.5 14.5 103.5 14.5 q84 0 148.5 -30 q64.5 -30 108 -81 q43.5 -51 65.5 -119.5 q22 -68.5 22 -144.5 q0 -88 -26 -157 q-26 -69 -71 -117 q-45 -48 -106 -73 q-61 -25 -132 -25 ZM366 61 q55 0 99 19.5 q44 19.5 76 53.5 q32 34 50 81 q18 47 21 102 l-478 0 q3 -45 16.5 -90.5 q13.5 -45.5 41.5 -82.5 q28 -37 70.5 -60 q42.5 -23 103.5 -23 Z" /><glyph glyph-name="florin" unicode="&#x192;" d="M478 639 l14 75 l-74 0 q-64 0 -103.5 -36 q-39.5 -36 -50.5 -93 l-26 -136 l-91 0 l-13 -68 l92 0 l-70 -369 q-6 -34 -14 -54 q-8 -20 -22.5 -30.5 q-14.5 -10.5 -39 -13.5 q-24.5 -3 -63.5 -3 l-14 -75 l66 0 q42 0 72 11 q30 11 52.5 38 q22.5 27 38 72 q15.5 45 27.5 113 l55 311 l100 0 l14 68 l-102 0 l31 138 q6 26 20.5 39 q14.5 13 41.5 13 l59 0 Z" /><glyph glyph-name="uni01A2" unicode="&#x1a2;" d="M630 634 l-75 0 l0 -606 q-30 -17 -75 -30.5 q-45 -13.5 -100 -13.5 q-85 0 -149 30.5 q-64 30.5 -107 82.5 q-43 52 -64.5 119 q-21.5 67 -21.5 141 q0 73 21.5 140.5 q21.5 67.5 64.5 119.5 q43 52 107 83 q64 31 149 31 q65 0 115 -17 l230 0 l0 -911 l-95 0 l0 831 ZM380 63 q8 0 19 1 q11 1 22 2.5 q11 1.5 21.5 4 q10.5 2.5 17.5 4.5 l0 564 q-15 4 -33 8 q-18 4 -47 4 q-65 0 -112 -25.5 q-47 -25.5 -77 -67.5 q-30 -42 -44 -94.5 q-14 -52.5 -14 -106.5 q0 -54 14 -106.5 q14 -52.5 44 -94.5 q30 -42 77 -67.5 q47 -25.5 112 -25.5 Z" /><glyph glyph-name="uni01A3" unicode="&#x1a3;" d="M493 442 l-66 0 l0 -416 q-29 -18 -63.5 -27.5 q-34.5 -9.5 -76.5 -9.5 q-62 0 -108.5 20.5 q-46.5 20.5 -78.5 57 q-32 36.5 -48 85.5 q-16 49 -16 106 q0 57 16 106.5 q16 49.5 48 86 q32 36.5 78.5 57.5 q46.5 21 108.5 21 q46 0 84 -12 l207 0 l0 -714 l-85 0 l0 639 ZM287 63 q27 0 55 10 l0 371 q-28 10 -55 10 q-33 0 -62.5 -13 q-29.5 -13 -51.5 -38 q-22 -25 -34.5 -61.5 q-12.5 -36.5 -12.5 -83.5 q0 -47 12.5 -83.5 q12.5 -36.5 34.5 -61 q22 -24.5 51.5 -37.5 q29.5 -13 62.5 -13 Z" /><glyph glyph-name="uni01B5" unicode="&#x1b5;" d="M22 80 l198 247 l-132 0 l0 80 l196 0 l182 227 l-410 0 l0 80 l522 0 l0 -80 l-182 -227 l146 0 l0 -80 l-210 0 l-197 -247 l455 0 l0 -80 l-568 0 l0 80 Z" /><glyph glyph-name="uni01B6" unicode="&#x1b6;" d="M22 65 l140 170 l-82 0 l0 75 l144 0 l110 132 l-292 0 l0 75 l402 0 l0 -58 l-123 -149 l81 0 l0 -75 l-143 0 l-131 -160 l330 0 l0 -75 l-436 0 l0 65 Z" /><glyph glyph-name="uni0259" unicode="&#x259;" d="M268 -11 q-69 0 -114.5 28.5 q-45.5 28.5 -73 72.5 q-27.5 44 -38 96 q-10.5 52 -8.5 99 l387 0 q1 34 -8 64.5 q-9 30.5 -29 54 q-20 23.5 -51 37.5 q-31 14 -73 14 q-54 0 -88.5 -25 q-34.5 -25 -45.5 -76 l-84 0 q17 88 75 131.5 q58 43.5 146 43.5 q62 0 108.5 -20 q46.5 -20 77.5 -56 q31 -36 46.5 -86 q15.5 -50 15.5 -109 q0 -59 -18 -108 q-18 -49 -50.5 -85 q-32.5 -36 -77 -56 q-44.5 -20 -97.5 -20 ZM273 64 q33 0 59.5 11.5 q26.5 11.5 45.5 31.5 q19 20 30 46.5 q11 26.5 13 56.5 l-297 0 q2 -30 13.5 -57 q11.5 -27 31 -46.5 q19.5 -19.5 46 -31 q26.5 -11.5 58.5 -11.5 Z" /><glyph glyph-name="circumflex" unicode="&#x2c6;" d="M64 731 l-102 -143 l76 0 l70 96 l69 -96 l84 0 l-104 143 l-93 0 Z" /><glyph glyph-name="caron" unicode="&#x2c7;" d="M158 588 l103 143 l-77 0 l-70 -96 l-69 96 l-83 0 l103 -143 l93 0 Z" /><glyph glyph-name="breve" unicode="&#x2d8;" d="M5 731 l-49 0 q10 -67 47 -102.5 q37 -35.5 106 -35.5 q66 0 106.5 37 q40.5 37 51.5 101 l-51 0 q-15 -38 -35.5 -60.5 q-20.5 -22.5 -63.5 -22.5 q-88 0 -112 83 Z" /><glyph glyph-name="dotaccent" unicode="&#x2d9;" d="M156 592 l0 104 l-90 0 l0 -104 l90 0 Z" /><glyph glyph-name="ring" unicode="&#x2da;" d="M-1 662 q0 -23 9 -43.5 q9 -20.5 24 -36 q15 -15.5 35.5 -24.5 q20.5 -9 43.5 -9 q23 0 43.5 9 q20.5 9 36 24.5 q15.5 15.5 24.5 36 q9 20.5 9 43.5 q0 23 -9 43.5 q-9 20.5 -24.5 36 q-15.5 15.5 -36 24.5 q-20.5 9 -43.5 9 q-23 0 -43.5 -9 q-20.5 -9 -35.5 -24.5 q-15 -15.5 -24 -36 q-9 -20.5 -9 -43.5 ZM43 662 q0 29 19.5 48.5 q19.5 19.5 48.5 19.5 q29 0 48.5 -19.5 q19.5 -19.5 19.5 -48.5 q0 -29 -19.5 -48.5 q-19.5 -19.5 -48.5 -19.5 q-29 0 -48.5 19.5 q-19.5 19.5 -19.5 48.5 Z" /><glyph glyph-name="ogonek" unicode="&#x2db;" d="M230 3 l-40 0 q-38 -22 -60.5 -42.5 q-22.5 -20.5 -34.5 -38 q-12 -17.5 -15.5 -30 q-3.5 -12.5 -3.5 -19.5 q0 -30 11 -46.5 q11 -16.5 26 -24.5 q15 -8 30.5 -9.5 q15.5 -1.5 24.5 -1.5 q31 0 59.5 13.5 q28.5 13.5 48.5 48.5 l-32 18 q-11 -14 -25 -22 q-14 -8 -37 -8 q-20 0 -29 13 q-9 13 -9 29 q0 21 17 49 q17 28 69 71 Z" /><glyph glyph-name="tilde" unicode="&#x2dc;" d="M285 711 l-52 0 q-5 -15 -15.5 -29.5 q-10.5 -14.5 -30.5 -14.5 q-16 0 -32.5 6.5 q-16.5 6.5 -33.5 14 q-17 7.5 -35.5 13.5 q-18.5 6 -38.5 6 q-23 0 -40 -9 q-17 -9 -29 -24 q-12 -15 -20.5 -35 q-8.5 -20 -14.5 -42 l52 0 q-2 19 14 30.5 q16 11.5 33 11.5 q14 0 31.5 -6 q17.5 -6 35.5 -13 q18 -8 35.5 -14 q17.5 -6 30.5 -6 q29 0 47.5 8.5 q18.5 8.5 31.5 22.5 q25 35 31 80 Z" /><glyph glyph-name="hungarumlaut" unicode="&#x2dd;" d="M189 731 l-81 -143 l66 0 l120 143 l-105 0 ZM33 731 l-80 -143 l65 0 l120 143 l-105 0 Z" /><glyph glyph-name="Omegagreek" unicode="&#x3a9;" d="M50 80 l195 0 l0 60 q-47 13 -83.5 39.5 q-36.5 26.5 -61 63 q-24.5 36.5 -37.5 80.5 q-13 44 -13 91 q0 67 25.5 123.5 q25.5 56.5 69 97 q43.5 40.5 101.5 63.5 q58 23 124 23 q65 0 123.5 -22.5 q58.5 -22.5 102 -63 q43.5 -40.5 69 -96.5 q25.5 -56 25.5 -123 q0 -48 -13 -92 q-13 -44 -37.5 -80.5 q-24.5 -36.5 -61 -63.5 q-36.5 -27 -83.5 -40 l0 -60 l195 0 l0 -80 l-254 0 l0 206 q80 17 120 71 q40 54 40 136 q0 49 -16 90.5 q-16 41.5 -45 72 q-29 30.5 -71.5 48 q-42.5 17.5 -94.5 17.5 q-52 0 -93.5 -17.5 q-41.5 -17.5 -71 -48 q-29.5 -30.5 -45 -72.5 q-15.5 -42 -15.5 -90 q0 -79 39.5 -135.5 q39.5 -56.5 120.5 -71.5 l0 -206 l-254 0 l0 80 Z" /><glyph glyph-name="pi" unicode="&#x3c0;" d="M509 -7 q-32 0 -50 10 q-18 10 -27 27 q-9 17 -11.5 39.5 q-2.5 22.5 -2.5 48.5 l0 324 l-233 0 l0 -442 l-85 0 l0 442 l-70 0 l0 75 l550 0 l0 -75 l-77 0 l0 -314 q0 -11 0.5 -22 q0.5 -11 4 -20 q3.5 -9 11 -14.5 q7.5 -5.5 22.5 -5.5 q11 0 21.5 3 q10.5 3 21.5 8 l0 -65 q-19 -9 -36.5 -14 q-17.5 -5 -38.5 -5 Z" /><glyph glyph-name="uni0400" unicode="&#x400;" d="M78 714 l493 0 l0 -80 l-398 0 l0 -227 l371 0 l0 -80 l-371 0 l0 -247 l401 0 l0 -80 l-496 0 l0 714 ZM306 908 l86 -143 l-64 0 l-130 143 l108 0 Z" /><glyph glyph-name="afii10023" unicode="&#x401;" d="M78 714 l493 0 l0 -80 l-398 0 l0 -227 l371 0 l0 -80 l-371 0 l0 -247 l401 0 l0 -80 l-496 0 l0 714 ZM276 873 l0 -104 l-89 0 l0 104 l89 0 ZM464 873 l0 -104 l-90 0 l0 104 l90 0 Z" /><glyph glyph-name="afii10051" unicode="&#x402;" d="M481 -8 q-25 0 -50 3 l0 81 q8 -1 14.5 -1 q6.5 0 13.5 0 q46 0 76.5 13 q30.5 13 48.5 35.5 q18 22.5 25.5 52.5 q7.5 30 7.5 64 q0 38 -11.5 65 q-11.5 27 -31 44.5 q-19.5 17.5 -46 25.5 q-26.5 8 -56.5 8 q-36 0 -67 -13 q-31 -13 -53.5 -37.5 q-22.5 -24.5 -35 -60.5 q-12.5 -36 -12.5 -81 l0 -191 l-95 0 l0 634 l-207 0 l0 80 l570 0 l0 -80 l-268 0 l0 -254 l2 0 q12 21 31.5 36 q19.5 15 43.5 25.5 q24 10.5 50.5 15.5 q26.5 5 52.5 5 q48 0 90 -13.5 q42 -13.5 72.5 -41.5 q30.5 -28 48 -69.5 q17.5 -41.5 17.5 -97.5 q0 -51 -13.5 -96 q-13.5 -45 -42 -79 q-28.5 -34 -72 -53.5 q-43.5 -19.5 -103.5 -19.5 Z" /><glyph glyph-name="afii10052" unicode="&#x403;" d="M84 714 l464 0 l0 -80 l-369 0 l0 -634 l-95 0 l0 714 ZM452 908 l-131 -143 l-64 0 l86 143 l109 0 Z" /><glyph glyph-name="afii10053" unicode="&#x404;" d="M368 -16 q-71 0 -131.5 25 q-60.5 25 -104.5 73 q-44 48 -69 117 q-25 69 -25 157 q0 76 20.5 144.5 q20.5 68.5 62 119.5 q41.5 51 104.5 81 q63 30 147 30 q52 0 102.5 -14 q50.5 -14 92.5 -42 q42 -28 70.5 -70 q28.5 -42 35.5 -97 l-94 0 q-9 33 -28 60 q-19 27 -46 46 q-27 19 -61.5 29 q-34.5 10 -73.5 10 q-55 0 -96.5 -20.5 q-41.5 -20.5 -70 -55 q-28.5 -34.5 -45.5 -79 q-17 -44.5 -23 -92.5 l329 0 l0 -79 l-333 0 q3 -59 20.5 -108 q17.5 -49 48 -84 q30.5 -35 74 -54.5 q43.5 -19.5 98.5 -19.5 q87 0 141.5 48 q54.5 48 70.5 139 l96 0 q-17 -132 -100 -198 q-83 -66 -212 -66 Z" /><glyph glyph-name="afii10054" unicode="&#x405;" d="M332 -16 q-60 0 -113.5 15 q-53.5 15 -94 45.5 q-40.5 30.5 -64 78 q-23.5 47.5 -23.5 112.5 l90 0 q0 -45 17.5 -77.5 q17.5 -32.5 46 -53.5 q28.5 -21 66 -31 q37.5 -10 78.5 -10 q32 0 64.5 6 q32.5 6 58.5 20.5 q26 14.5 42 39.5 q16 25 16 64 q0 37 -19.5 60 q-19.5 23 -52 37.5 q-32.5 14.5 -73.5 23.5 q-41 9 -83.5 18.5 q-42.5 9.5 -83.5 22 q-41 12.5 -73.5 33 q-32.5 20.5 -52 53 q-19.5 32.5 -19.5 81.5 q0 54 22 93.5 q22 39.5 58.5 65 q36.5 25.5 83 38 q46.5 12.5 95.5 12.5 q55 0 102 -13 q47 -13 82.5 -41 q35.5 -28 56 -70.5 q20.5 -42.5 22.5 -101.5 l-90 0 q-8 77 -55.5 111.5 q-47.5 34.5 -121.5 34.5 q-30 0 -59 -6 q-29 -6 -51.5 -20 q-22.5 -14 -36 -37.5 q-13.5 -23.5 -13.5 -58.5 q0 -33 19.5 -53.5 q19.5 -20.5 52 -33.5 q32.5 -13 73.5 -21.5 q41 -8.5 83.5 -18.5 q42.5 -10 83.5 -23.5 q41 -13.5 73.5 -36.5 q32.5 -23 52 -58 q19.5 -35 19.5 -88 q0 -57 -25.5 -97.5 q-25.5 -40.5 -65.5 -66 q-40 -25.5 -89.5 -37 q-49.5 -11.5 -98.5 -11.5 Z" /><glyph glyph-name="afii10055" unicode="&#x406;" d="M82 714 l95 0 l0 -714 l-95 0 l0 714 Z" /><glyph glyph-name="afii10056" unicode="&#x407;" d="M82 714 l95 0 l0 -714 l-95 0 l0 714 ZM80 873 l0 -104 l-89 0 l0 104 l89 0 ZM268 873 l0 -104 l-90 0 l0 104 l90 0 Z" /><glyph glyph-name="afii10057" unicode="&#x408;" d="M230 -16 q-100 0 -154 52 q-54 52 -54 155 l0 44 l95 0 l0 -30 q0 -31 5 -57 q5 -26 17.5 -45 q12.5 -19 35 -29.5 q22.5 -10.5 57.5 -10.5 q65 0 89.5 35 q24.5 35 24.5 94 l0 522 l95 0 l0 -536 q0 -36 -10.5 -71 q-10.5 -35 -35 -62.5 q-24.5 -27.5 -65 -44 q-40.5 -16.5 -100.5 -16.5 Z" /><glyph glyph-name="afii10058" unicode="&#x409;" d="M68 -10 q-15 0 -39.5 3 q-24.5 3 -38.5 7 l0 80 q24 -6 61 -6 q24 0 41.5 10 q17.5 10 30.5 35.5 q13 25.5 22 69 q9 43.5 16 109.5 q7 67 11.5 168 q4.5 101 4.5 248 l448 0 l0 -291 l223 0 q106 0 162.5 -54.5 q56.5 -54.5 56.5 -157.5 q0 -102 -56.5 -156.5 q-56.5 -54.5 -162.5 -54.5 l-318 0 l0 634 l-263 0 q0 -118 -4 -202.5 q-4 -84.5 -10 -144.5 q-8 -72 -21.5 -127 q-13.5 -55 -35.5 -93 q-22 -38 -53.5 -57.5 q-31.5 -19.5 -74.5 -19.5 ZM816 80 q156 0 156 131 q0 133 -156 133 l-191 0 l0 -264 l191 0 Z" /><glyph glyph-name="afii10059" unicode="&#x40a;" d="M78 714 l95 0 l0 -301 l376 0 l0 301 l95 0 l0 -301 l223 0 q106 0 162.5 -52 q56.5 -52 56.5 -155 q0 -102 -56.5 -154 q-56.5 -52 -162.5 -52 l-318 0 l0 333 l-376 0 l0 -333 l-95 0 l0 714 ZM835 80 q78 0 117 30 q39 30 39 96 q0 67 -39 97.5 q-39 30.5 -117 30.5 l-191 0 l0 -254 l191 0 Z" /><glyph glyph-name="afii10060" unicode="&#x40b;" d="M208 634 l-207 0 l0 80 l570 0 l0 -80 l-268 0 l0 -203 q29 8 72 19.5 q43 11.5 87 11.5 q82 0 129.5 -23 q47.5 -23 72 -56 q24.5 -33 31.5 -70.5 q7 -37.5 7 -67.5 l0 -245 l-95 0 l0 239 q0 22 -2.5 47 q-2.5 25 -16.5 46 q-14 21 -43 35 q-29 14 -83 14 q-56 0 -94.5 -11 q-38.5 -11 -64.5 -18 l0 -352 l-95 0 l0 634 Z" /><glyph glyph-name="afii10061" unicode="&#x40c;" d="M78 714 l95 0 l0 -356 l362 356 l123 0 l-301 -288 l313 -426 l-120 0 l-258 361 l-119 -111 l0 -250 l-95 0 l0 714 ZM491 908 l-131 -143 l-64 0 l86 143 l109 0 Z" /><glyph glyph-name="uni040D" unicode="&#x40d;" d="M78 714 l95 0 l0 -605 l359 605 l120 0 l0 -714 l-95 0 l0 607 l-360 -607 l-119 0 l0 714 ZM346 908 l86 -143 l-64 0 l-130 143 l108 0 Z" /><glyph glyph-name="afii10062" unicode="&#x40e;" d="M149 -11 q-24 0 -47.5 3.5 q-23.5 3.5 -40.5 8.5 l0 78 q13 -4 32.5 -7 q19.5 -3 37.5 -3 q23 0 40.5 8.5 q17.5 8.5 31.5 22.5 q14 14 24.5 32 q10.5 18 19.5 37 l12 25 l-258 520 l103 0 l206 -428 l201 428 l101 0 l-274 -561 q-45 -92 -91 -128 q-46 -36 -98 -36 ZM312 761 q-63 0 -103.5 39 q-40.5 39 -48.5 99 l51 0 q22 -71 100 -71 q76 0 100 71 l51 0 q-10 -60 -47 -99 q-37 -39 -103 -39 Z" /><glyph glyph-name="afii10145" unicode="&#x40f;" d="M310 0 l-232 0 l0 714 l95 0 l0 -634 l366 0 l0 634 l95 0 l0 -714 l-230 0 l0 -177 l-94 0 l0 177 Z" /><glyph glyph-name="afii10017" unicode="&#x410;" d="M272 714 l105 0 l279 -714 l-105 0 l-78 215 l-302 0 l-80 -215 l-97 0 l278 714 ZM443 295 l-119 333 l-2 0 l-121 -333 l242 0 Z" /><glyph glyph-name="afii10018" unicode="&#x411;" d="M78 714 l489 0 l0 -80 l-394 0 l0 -210 l238 0 q106 0 162.5 -55 q56.5 -55 56.5 -158 q0 -102 -56.5 -156.5 q-56.5 -54.5 -162.5 -54.5 l-333 0 l0 714 ZM380 80 q156 0 156 131 q0 133 -156 133 l-207 0 l0 -264 l207 0 Z" /><glyph glyph-name="afii10019" unicode="&#x412;" d="M78 714 l259 0 q23 0 49.5 -0.5 q26.5 -0.5 52.5 -3 q26 -2.5 49 -7.5 q23 -5 38 -15 q35 -21 59.5 -58 q24.5 -37 24.5 -91 q0 -57 -27.5 -98.5 q-27.5 -41.5 -78.5 -61.5 l0 -2 q66 -14 101 -60 q35 -46 35 -112 q0 -39 -14 -76 q-14 -37 -41.5 -65.5 q-27.5 -28.5 -68 -46 q-40.5 -17.5 -93.5 -17.5 l-345 0 l0 714 ZM411 80 q63 0 98.5 34 q35.5 34 35.5 94 q0 35 -13 58 q-13 23 -34.5 36.5 q-21.5 13.5 -49.5 19 q-28 5.5 -58 5.5 l-217 0 l0 -247 l238 0 ZM363 407 q81 0 116.5 28.5 q35.5 28.5 35.5 85.5 q0 37 -12 59.5 q-12 22.5 -33 34.5 q-21 12 -48.5 15.5 q-27.5 3.5 -58.5 3.5 l-190 0 l0 -227 l190 0 Z" /><glyph glyph-name="afii10020" unicode="&#x413;" d="M84 714 l464 0 l0 -80 l-369 0 l0 -634 l-95 0 l0 714 Z" /><glyph glyph-name="afii10021" unicode="&#x414;" d="M9 80 l70 0 q20 36 37 90 q17 54 29.5 118.5 q12.5 64.5 19.5 137 q7 72.5 7 146.5 l0 142 l460 0 l0 -634 l79 0 l0 -257 l-91 0 l0 177 l-520 0 l0 -177 l-91 0 l0 257 ZM537 80 l0 554 l-273 0 l0 -103 q0 -66 -6.5 -132.5 q-6.5 -66.5 -18 -126 q-11.5 -59.5 -26 -109.5 q-14.5 -50 -30.5 -83 l354 0 Z" /><glyph glyph-name="afii10022" unicode="&#x415;" d="M78 714 l493 0 l0 -80 l-398 0 l0 -227 l371 0 l0 -80 l-371 0 l0 -247 l401 0 l0 -80 l-496 0 l0 714 Z" /><glyph glyph-name="afii10024" unicode="&#x416;" d="M313 420 l-284 294 l118 0 l312 -333 l0 333 l93 0 l0 -333 l312 333 l118 0 l-284 -294 l316 -420 l-118 0 l-260 354 l-84 -88 l0 -266 l-93 0 l0 266 l-84 88 l-260 -354 l-118 0 l316 420 Z" /><glyph glyph-name="afii10025" unicode="&#x417;" d="M332 -16 q-64 0 -118 15 q-54 15 -93.5 46 q-39.5 31 -61.5 78 q-22 47 -22 112 l91 0 q1 -48 18.5 -81.5 q17.5 -33.5 46 -54 q28.5 -20.5 66.5 -29.5 q38 -9 81 -9 q37 0 69 10.5 q32 10.5 55.5 30 q23.5 19.5 37 47 q13.5 27.5 13.5 61.5 q0 39 -15 63.5 q-15 24.5 -39.5 38 q-24.5 13.5 -57 18.5 q-32.5 5 -68.5 5 q-15 0 -34 -0.5 q-19 -0.5 -30 -1.5 l0 78 q12 -2 32 -2 q20 0 32 0 q34 0 62.5 6.5 q28.5 6.5 49 21.5 q20.5 15 32 39.5 q11.5 24.5 11.5 60.5 q0 33 -12.5 55 q-12.5 22 -34 35.5 q-21.5 13.5 -49 19.5 q-27.5 6 -57.5 6 q-79 0 -124 -34.5 q-45 -34.5 -53 -112.5 l-91 0 q2 57 23.5 99.5 q21.5 42.5 57.5 70 q36 27.5 84.5 41.5 q48.5 14 105.5 14 q51 0 95.5 -11.5 q44.5 -11.5 77.5 -35.5 q33 -24 52 -60.5 q19 -36.5 19 -86.5 q0 -29 -10 -54 q-10 -25 -26.5 -45 q-16.5 -20 -38 -34.5 q-21.5 -14.5 -43.5 -21.5 l0 -3 q35 -7 62 -23.5 q27 -16.5 45 -39.5 q18 -23 27 -51 q9 -28 9 -57 q0 -33 -15 -72 q-15 -39 -48.5 -73 q-33.5 -34 -86 -56.5 q-52.5 -22.5 -127.5 -22.5 Z" /><glyph glyph-name="afii10026" unicode="&#x418;" d="M78 714 l95 0 l0 -605 l359 605 l120 0 l0 -714 l-95 0 l0 607 l-360 -607 l-119 0 l0 714 Z" /><glyph glyph-name="afii10027" unicode="&#x419;" d="M78 714 l95 0 l0 -605 l359 605 l120 0 l0 -714 l-95 0 l0 607 l-360 -607 l-119 0 l0 714 ZM365 761 q-63 0 -103.5 39 q-40.5 39 -48.5 99 l51 0 q22 -71 100 -71 q76 0 100 71 l51 0 q-10 -60 -47 -99 q-37 -39 -103 -39 Z" /><glyph glyph-name="afii10028" unicode="&#x41a;" d="M78 714 l95 0 l0 -356 l362 356 l123 0 l-301 -288 l313 -426 l-120 0 l-258 361 l-119 -111 l0 -250 l-95 0 l0 714 Z" /><glyph glyph-name="afii10029" unicode="&#x41b;" d="M68 -10 q-15 0 -39.5 3 q-24.5 3 -38.5 7 l0 80 q24 -6 61 -6 q24 0 41.5 10 q17.5 10 30.5 35.5 q13 25.5 22 69 q9 43.5 16 109.5 q7 67 11.5 168 q4.5 101 4.5 248 l448 0 l0 -714 l-95 0 l0 634 l-263 0 q0 -118 -4 -202.5 q-4 -84.5 -10 -144.5 q-8 -72 -21.5 -127 q-13.5 -55 -35.5 -93 q-22 -38 -53.5 -57.5 q-31.5 -19.5 -74.5 -19.5 Z" /><glyph glyph-name="afii10030" unicode="&#x41c;" d="M80 714 l130 0 l225 -600 l226 600 l130 0 l0 -714 l-90 0 l0 594 l-2 0 l-223 -594 l-81 0 l-223 594 l-2 0 l0 -594 l-90 0 l0 714 Z" /><glyph glyph-name="afii10031" unicode="&#x41d;" d="M78 714 l95 0 l0 -307 l376 0 l0 307 l95 0 l0 -714 l-95 0 l0 327 l-376 0 l0 -327 l-95 0 l0 714 Z" /><glyph glyph-name="afii10032" unicode="&#x41e;" d="M380 -16 q-85 0 -149 30.5 q-64 30.5 -107 82.5 q-43 52 -64.5 119 q-21.5 67 -21.5 141 q0 73 21.5 140.5 q21.5 67.5 64.5 119.5 q43 52 107 83 q64 31 149 31 q85 0 149 -31 q64 -31 107 -83 q43 -52 64.5 -119.5 q21.5 -67.5 21.5 -140.5 q0 -74 -21.5 -141 q-21.5 -67 -64.5 -119 q-43 -52 -107 -82.5 q-64 -30.5 -149 -30.5 ZM380 63 q65 0 112 25.5 q47 25.5 77 67.5 q30 42 44 94.5 q14 52.5 14 106.5 q0 54 -14 106.5 q-14 52.5 -44 94.5 q-30 42 -77 67.5 q-47 25.5 -112 25.5 q-65 0 -112 -25.5 q-47 -25.5 -77 -67.5 q-30 -42 -44 -94.5 q-14 -52.5 -14 -106.5 q0 -54 14 -106.5 q14 -52.5 44 -94.5 q30 -42 77 -67.5 q47 -25.5 112 -25.5 Z" /><glyph glyph-name="afii10033" unicode="&#x41f;" d="M78 714 l556 0 l0 -714 l-95 0 l0 634 l-366 0 l0 -634 l-95 0 l0 714 Z" /><glyph glyph-name="afii10034" unicode="&#x420;" d="M78 714 l313 0 q109 0 164 -55.5 q55 -55.5 55 -155.5 q0 -100 -55 -155.5 q-55 -55.5 -164 -55.5 l-218 0 l0 -292 l-95 0 l0 714 ZM359 372 q81 0 118.5 33.5 q37.5 33.5 37.5 97.5 q0 64 -37.5 97.5 q-37.5 33.5 -118.5 33.5 l-186 0 l0 -262 l186 0 Z" /><glyph glyph-name="afii10035" unicode="&#x421;" d="M373 -16 q-83 0 -145 28.5 q-62 28.5 -103 78.5 q-41 50 -61.5 118 q-20.5 68 -20.5 146 q0 78 22 146.5 q22 68.5 64.5 119.5 q42.5 51 105.5 80.5 q63 29.5 146 29.5 q56 0 106 -15 q50 -15 89 -44 q39 -29 65 -72.5 q26 -43.5 34 -100.5 l-95 0 q-16 76 -70.5 114 q-54.5 38 -129.5 38 q-64 0 -109.5 -24 q-45.5 -24 -75 -64.5 q-29.5 -40.5 -43.5 -92.5 q-14 -52 -14 -108 q0 -61 14 -115.5 q14 -54.5 43.5 -95 q29.5 -40.5 75.5 -64.5 q46 -24 110 -24 q46 0 83 15.5 q37 15.5 63.5 43 q26.5 27.5 41.5 65.5 q15 38 18 82 l95 0 q-14 -136 -92.5 -210.5 q-78.5 -74.5 -216.5 -74.5 Z" /><glyph glyph-name="afii10036" unicode="&#x422;" d="M240 634 l-238 0 l0 80 l571 0 l0 -80 l-238 0 l0 -634 l-95 0 l0 634 Z" /><glyph glyph-name="afii10037" unicode="&#x423;" d="M149 -11 q-24 0 -47.5 3.5 q-23.5 3.5 -40.5 8.5 l0 78 q13 -4 32.5 -7 q19.5 -3 37.5 -3 q23 0 40.5 8.5 q17.5 8.5 31.5 22.5 q14 14 24.5 32 q10.5 18 19.5 37 l12 25 l-258 520 l103 0 l206 -428 l201 428 l101 0 l-274 -561 q-45 -92 -91 -128 q-46 -36 -98 -36 Z" /><glyph glyph-name="afii10038" unicode="&#x424;" d="M363 70 q-76 0 -137.5 19.5 q-61.5 19.5 -105 57 q-43.5 37.5 -67 91 q-23.5 53.5 -23.5 121.5 q0 67 23.5 122 q23.5 55 67 93 q43.5 38 105 59 q61.5 21 137.5 21 l0 77 l95 0 l0 -77 q77 0 138.5 -20.5 q61.5 -20.5 105 -59 q43.5 -38.5 66.5 -93 q23 -54.5 23 -122.5 q0 -70 -23.5 -124 q-23.5 -54 -67 -90.5 q-43.5 -36.5 -105 -55.5 q-61.5 -19 -137.5 -19 l0 -86 l-95 0 l0 86 ZM363 577 q-123 -4 -180.5 -61.5 q-57.5 -57.5 -57.5 -156.5 q0 -100 57.5 -153 q57.5 -53 180.5 -59 l0 430 ZM458 147 q123 6 180.5 59 q57.5 53 57.5 153 q0 99 -57.5 156.5 q-57.5 57.5 -180.5 61.5 l0 -430 l0 0 Z" /><glyph glyph-name="afii10039" unicode="&#x425;" d="M248 367 l-235 347 l114 0 l178 -279 l186 279 l106 0 l-236 -347 l251 -367 l-116 0 l-192 295 l-198 -295 l-106 0 l248 367 Z" /><glyph glyph-name="afii10040" unicode="&#x426;" d="M611 0 l-533 0 l0 714 l95 0 l0 -634 l357 0 l0 634 l95 0 l0 -634 l77 0 l0 -257 l-91 0 l0 177 Z" /><glyph glyph-name="afii10041" unicode="&#x427;" d="M485 306 q-13 -3 -36 -8 q-23 -5 -50.5 -9.5 q-27.5 -4.5 -57 -8 q-29.5 -3.5 -54.5 -3.5 q-82 0 -129.5 21.5 q-47.5 21.5 -72 53.5 q-24.5 32 -31.5 70.5 q-7 38.5 -7 71.5 l0 220 l94 0 l0 -212 q0 -24 2.5 -49.5 q2.5 -25.5 16.5 -46.5 q14 -21 43.5 -34.5 q29.5 -13.5 83.5 -13.5 q67 0 119 10 q52 10 79 18 l0 328 l95 0 l0 -714 l-95 0 l0 306 Z" /><glyph glyph-name="afii10042" unicode="&#x428;" d="M78 714 l95 0 l0 -634 l305 0 l0 634 l95 0 l0 -634 l305 0 l0 634 l95 0 l0 -714 l-895 0 l0 714 Z" /><glyph glyph-name="afii10043" unicode="&#x429;" d="M962 0 l-884 0 l0 714 l95 0 l0 -634 l305 0 l0 634 l95 0 l0 -634 l305 0 l0 634 l95 0 l0 -634 l81 0 l0 -257 l-92 0 l0 177 Z" /><glyph glyph-name="afii10044" unicode="&#x42a;" d="M203 634 l-201 0 l0 80 l296 0 l0 -291 l223 0 q106 0 162.5 -54.5 q56.5 -54.5 56.5 -157.5 q0 -102 -56.5 -156.5 q-56.5 -54.5 -162.5 -54.5 l-318 0 l0 634 ZM489 80 q156 0 156 131 q0 133 -156 133 l-191 0 l0 -264 l191 0 Z" /><glyph glyph-name="afii10045" unicode="&#x42b;" d="M78 714 l95 0 l0 -291 l213 0 q106 0 162.5 -54.5 q56.5 -54.5 56.5 -157.5 q0 -102 -56.5 -156.5 q-56.5 -54.5 -162.5 -54.5 l-308 0 l0 714 ZM354 80 q156 0 156 131 q0 133 -156 133 l-181 0 l0 -264 l181 0 ZM699 714 l95 0 l0 -714 l-95 0 l0 714 Z" /><glyph glyph-name="afii10046" unicode="&#x42c;" d="M78 714 l95 0 l0 -291 l223 0 q106 0 162.5 -54.5 q56.5 -54.5 56.5 -157.5 q0 -102 -56.5 -156.5 q-56.5 -54.5 -162.5 -54.5 l-318 0 l0 714 ZM364 80 q156 0 156 131 q0 133 -156 133 l-191 0 l0 -264 l191 0 Z" /><glyph glyph-name="afii10047" unicode="&#x42d;" d="M350 -16 q-129 0 -212 66 q-83 66 -100 198 l96 0 q16 -91 70.5 -139 q54.5 -48 141.5 -48 q55 0 98.5 19.5 q43.5 19.5 74 54.5 q30.5 35 48 84 q17.5 49 20.5 108 l-333 0 l0 79 l329 0 q-6 48 -23 92.5 q-17 44.5 -45.5 79 q-28.5 34.5 -70 55 q-41.5 20.5 -96.5 20.5 q-39 0 -73.5 -10 q-34.5 -10 -61.5 -29 q-27 -19 -46 -46 q-19 -27 -28 -60 l-94 0 q7 55 35.5 97 q28.5 42 70.5 70 q42 28 92.5 42 q50.5 14 102.5 14 q84 0 147 -30 q63 -30 104.5 -81 q41.5 -51 62 -119.5 q20.5 -68.5 20.5 -144.5 q0 -88 -25 -157 q-25 -69 -69 -117 q-44 -48 -104.5 -73 q-60.5 -25 -131.5 -25 Z" /><glyph glyph-name="afii10048" unicode="&#x42e;" d="M650 -16 q-76 0 -135.5 27 q-59.5 27 -101.5 74 q-42 47 -66 109 q-24 62 -28 133 l-146 0 l0 -327 l-95 0 l0 714 l95 0 l0 -307 l147 0 q7 67 32 126 q25 59 67 103 q42 44 100 69.5 q58 25.5 131 25.5 q79 0 141 -30.5 q62 -30.5 104.5 -81.5 q42.5 -51 64.5 -119 q22 -68 22 -143 q0 -75 -22 -143 q-22 -68 -64.5 -119 q-42.5 -51 -104.5 -81 q-62 -30 -141 -30 ZM650 63 q60 0 104.5 25 q44.5 25 74 66 q29.5 41 44 94 q14.5 53 14.5 109 q0 56 -14.5 109 q-14.5 53 -44 94 q-29.5 41 -74 66 q-44.5 25 -104.5 25 q-60 0 -104.5 -25 q-44.5 -25 -74 -66 q-29.5 -41 -44 -94 q-14.5 -53 -14.5 -109 q0 -56 14.5 -109 q14.5 -53 44 -94 q29.5 -41 74 -66 q44.5 -25 104.5 -25 Z" /><glyph glyph-name="afii10049" unicode="&#x42f;" d="M232 300 q-75 11 -123 64 q-48 53 -48 144 q0 102 59.5 154 q59.5 52 165.5 52 l306 0 l0 -714 l-94 0 l0 294 l-159 0 l-221 -294 l-118 0 l232 300 ZM498 374 l0 260 l-180 0 q-78 0 -120 -30 q-42 -30 -42 -96 q0 -66 41.5 -100 q41.5 -34 120.5 -34 l180 0 Z" /><glyph glyph-name="afii10065" unicode="&#x430;" d="M207 -11 q-35 0 -66 7.5 q-31 7.5 -54.5 25 q-23.5 17.5 -37 45 q-13.5 27.5 -13.5 66.5 q0 44 15 72 q15 28 39.5 45.5 q24.5 17.5 56 26.5 q31.5 9 64.5 15 q35 7 66.5 10.5 q31.5 3.5 55.5 10 q24 6.5 38 19 q14 12.5 14 36.5 q0 28 -10.5 45 q-10.5 17 -27 26 q-16.5 9 -37 12 q-20.5 3 -40.5 3 q-54 0 -90 -20.5 q-36 -20.5 -39 -77.5 l-85 0 q2 48 20 81 q18 33 48 53.5 q30 20.5 68.5 29.5 q38.5 9 82.5 9 q35 0 69.5 -5 q34.5 -5 62.5 -20.5 q28 -15.5 45 -43.5 q17 -28 17 -73 l0 -266 q0 -30 3.5 -44 q3.5 -14 23.5 -14 q9 0 26 5 l0 -66 q-22 -13 -61 -13 q-33 0 -52.5 18.5 q-19.5 18.5 -19.5 60.5 q-35 -42 -81.5 -60.5 q-46.5 -18.5 -100.5 -18.5 ZM226 63 q42 0 72 11.5 q30 11.5 49 29 q19 17.5 28 38 q9 20.5 9 38.5 l0 87 q-16 -13 -42 -18 q-26 -5 -54.5 -9 q-28.5 -4 -57.5 -8 q-29 -4 -52 -14 q-23 -10 -37.5 -28.5 q-14.5 -18.5 -14.5 -50.5 q0 -21 8.5 -35.5 q8.5 -14.5 22 -23.5 q13.5 -9 31.5 -13 q18 -4 38 -4 Z" /><glyph glyph-name="afii10066" unicode="&#x431;" d="M295 -11 q-100 0 -161.5 51 q-61.5 51 -77.5 158 q-6 42 -6 94 q0 37 2.5 77 q2.5 40 9 79 q6.5 39 18 75 q11.5 36 30.5 65 q34 53 83 78.5 q49 25.5 123 30.5 q49 4 82 9 q33 5 37 25 l85 0 q-2 -39 -17 -60 q-15 -21 -42 -31.5 q-27 -10.5 -66 -14 q-39 -3.5 -91 -7.5 q-43 -3 -75 -20 q-32 -17 -54.5 -45.5 q-22.5 -28.5 -36.5 -67 q-14 -38.5 -20 -84.5 l3 0 q22 51 68.5 84 q46.5 33 112.5 33 q109 0 172 -68 q63 -68 63 -196 q0 -65 -17.5 -114.5 q-17.5 -49.5 -49.5 -83 q-32 -33.5 -76.5 -50.5 q-44.5 -17 -98.5 -17 ZM296 61 q30 0 58 12.5 q28 12.5 49 36.5 q21 24 34 59.5 q13 35.5 13 82.5 q0 91 -42 143 q-42 52 -114 52 q-72 0 -114.5 -52.5 q-42.5 -52.5 -42.5 -143.5 q0 -88 42 -139 q42 -51 117 -51 Z" /><glyph glyph-name="afii10067" unicode="&#x432;" d="M64 517 l239 0 q34 0 65.5 -5 q31.5 -5 56.5 -18.5 q25 -13.5 40 -38.5 q15 -25 15 -64 q0 -42 -20 -68 q-20 -26 -56 -43 l0 -1 q45 -9 71.5 -42 q26.5 -33 26.5 -85 q0 -33 -11.5 -61 q-11.5 -28 -32.5 -48 q-21 -20 -50 -31.5 q-29 -11.5 -63 -11.5 l-281 0 l0 517 ZM329 72 q42 0 63.5 24.5 q21.5 24.5 21.5 61.5 q0 35 -23 56 q-23 21 -77 21 l-166 0 l0 -163 l181 0 ZM294 305 q55 0 76.5 20 q21.5 20 21.5 53 q0 32 -21 49.5 q-21 17.5 -77 17.5 l-146 0 l0 -140 l146 0 Z" /><glyph glyph-name="afii10068" unicode="&#x433;" d="M66 517 l354 0 l0 -75 l-269 0 l0 -442 l-85 0 l0 517 Z" /><glyph glyph-name="afii10069" unicode="&#x434;" d="M3 75 l61 0 q11 21 22.5 57.5 q11.5 36.5 21 81 q9.5 44.5 15.5 94.5 q6 50 6 98 l0 111 l374 0 l0 -442 l70 0 l0 -232 l-81 0 l0 157 l-408 0 l0 -157 l-81 0 l0 232 ZM418 75 l0 367 l-206 0 l0 -44 q0 -49 -5.5 -97.5 q-5.5 -48.5 -14.5 -91.5 q-9 -43 -19.5 -78 q-10.5 -35 -20.5 -56 l266 0 Z" /><glyph glyph-name="afii10070" unicode="&#x435;" d="M284 -11 q-62 0 -108.5 20 q-46.5 20 -77.5 56 q-31 36 -46.5 86 q-15.5 50 -15.5 109 q0 58 18 107.5 q18 49.5 50.5 85.5 q32.5 36 77 56 q44.5 20 97.5 20 q69 0 114.5 -28.5 q45.5 -28.5 73 -72.5 q27.5 -44 38 -96 q10.5 -52 8.5 -99 l-387 0 q-1 -34 8 -64.5 q9 -30.5 29 -54 q20 -23.5 51 -37.5 q31 -14 73 -14 q54 0 88.5 25 q34.5 25 45.5 76 l84 0 q-17 -88 -75 -131.5 q-58 -43.5 -146 -43.5 ZM423 308 q-2 30 -13.5 57 q-11.5 27 -31 46.5 q-19.5 19.5 -46 31 q-26.5 11.5 -58.5 11.5 q-33 0 -59.5 -11.5 q-26.5 -11.5 -45.5 -31.5 q-19 -20 -30 -46.5 q-11 -26.5 -13 -56.5 l297 0 Z" /><glyph glyph-name="afii10072" unicode="&#x436;" d="M226 304 l-197 213 l105 0 l215 -240 l0 240 l85 0 l0 -240 l215 240 l105 0 l-197 -213 l226 -304 l-105 0 l-177 250 l-67 -65 l0 -185 l-85 0 l0 185 l-67 65 l-177 -250 l-105 0 l226 304 Z" /><glyph glyph-name="afii10073" unicode="&#x437;" d="M254 -11 q-103 0 -161 46 q-58 46 -63 131 l86 0 q4 -57 42 -82 q38 -25 95 -25 q61 0 94 26 q33 26 33 66 q0 39 -25 61 q-25 22 -85 22 l-69 0 l0 69 l55 0 q45 0 77 18.5 q32 18.5 32 64.5 q0 29 -27.5 51 q-27.5 22 -81.5 22 q-23 0 -45.5 -5 q-22.5 -5 -40.5 -16 q-18 -11 -30 -29 q-12 -18 -15 -44 l-86 0 q3 48 23 79.5 q20 31.5 50 50 q30 18.5 68 26.5 q38 8 77 8 q40 0 75 -8 q35 -8 61.5 -25.5 q26.5 -17.5 42 -43.5 q15.5 -26 15.5 -62 q0 -45 -25.5 -73 q-25.5 -28 -57.5 -35 l0 -2 q18 -3 36 -12 q18 -9 32 -24.5 q14 -15.5 23 -38 q9 -22.5 9 -52.5 q0 -42 -18 -73 q-18 -31 -48 -51 q-30 -20 -68.5 -30 q-38.5 -10 -79.5 -10 Z" /><glyph glyph-name="afii10074" unicode="&#x438;" d="M64 517 l85 0 l0 -422 l244 422 l109 0 l0 -517 l-85 0 l0 422 l-244 -422 l-109 0 l0 517 Z" /><glyph glyph-name="afii10075" unicode="&#x439;" d="M64 517 l85 0 l0 -422 l244 422 l109 0 l0 -517 l-85 0 l0 422 l-244 -422 l-109 0 l0 517 ZM283 593 q-59 0 -97.5 36.5 q-38.5 36.5 -46.5 96.5 l51 0 q11 -36 34.5 -52.5 q23.5 -16.5 57.5 -16.5 q35 0 57.5 16.5 q22.5 16.5 34.5 52.5 l51 0 q-10 -60 -46 -96.5 q-36 -36.5 -96 -36.5 Z" /><glyph glyph-name="afii10076" unicode="&#x43a;" d="M64 517 l85 0 l0 -247 l237 247 l113 0 l-208 -204 l235 -313 l-109 0 l-187 254 l-81 -79 l0 -175 l-85 0 l0 517 Z" /><glyph glyph-name="afii10077" unicode="&#x43b;" d="M68 -6 q-19 0 -39 2.5 q-20 2.5 -29 4.5 l0 69 q10 -3 27 -4 q17 -1 25 -1 q33 0 47.5 23.5 q14.5 23.5 21.5 65.5 q3 20 6 50.5 q3 30.5 5 74 q2 43.5 3 102.5 q1 59 1 136 l363 0 l0 -517 l-85 0 l0 442 l-196 0 q0 -117 -4 -189 q-4 -72 -11 -115 q-11 -66 -43 -105 q-32 -39 -92 -39 Z" /><glyph glyph-name="afii10078" unicode="&#x43c;" d="M64 517 l122 0 l157 -419 l2 0 l157 419 l122 0 l0 -517 l-85 0 l0 410 l-156 -410 l-78 0 l-156 410 l0 -410 l-85 0 l0 517 Z" /><glyph glyph-name="afii10079" unicode="&#x43d;" d="M64 517 l85 0 l0 -206 l262 0 l0 206 l85 0 l0 -517 l-85 0 l0 238 l-262 0 l0 -238 l-85 0 l0 517 Z" /><glyph glyph-name="afii10080" unicode="&#x43e;" d="M287 -11 q-62 0 -108.5 20.5 q-46.5 20.5 -78.5 57 q-32 36.5 -48 85.5 q-16 49 -16 106 q0 57 16 106.5 q16 49.5 48 86 q32 36.5 78.5 57.5 q46.5 21 108.5 21 q61 0 108 -21 q47 -21 79 -57.5 q32 -36.5 48 -86 q16 -49.5 16 -106.5 q0 -57 -16 -106 q-16 -49 -48 -85.5 q-32 -36.5 -79 -57 q-47 -20.5 -108 -20.5 ZM287 63 q33 0 62.5 13 q29.5 13 51.5 37.5 q22 24.5 34.5 61 q12.5 36.5 12.5 83.5 q0 47 -12.5 83.5 q-12.5 36.5 -34.5 61.5 q-22 25 -51.5 38 q-29.5 13 -62.5 13 q-33 0 -62.5 -13 q-29.5 -13 -51.5 -38 q-22 -25 -34.5 -61.5 q-12.5 -36.5 -12.5 -83.5 q0 -47 12.5 -83.5 q12.5 -36.5 34.5 -61 q22 -24.5 51.5 -37.5 q29.5 -13 62.5 -13 Z" /><glyph glyph-name="afii10081" unicode="&#x43f;" d="M64 517 l422 0 l0 -517 l-85 0 l0 442 l-252 0 l0 -442 l-85 0 l0 517 Z" /><glyph glyph-name="afii10082" unicode="&#x440;" d="M67 517 l85 0 l0 -70 l2 0 q21 43 66 62.5 q45 19.5 99 19.5 q60 0 104.5 -22 q44.5 -22 74 -59.5 q29.5 -37.5 44.5 -86.5 q15 -49 15 -104 q0 -56 -14.5 -104.5 q-14.5 -48.5 -44 -85 q-29.5 -36.5 -74 -57.5 q-44.5 -21 -103.5 -21 q-20 0 -43 4 q-23 4 -46 13 q-23 9 -43.5 24.5 q-20.5 15.5 -34.5 38.5 l-2 0 l0 -266 l-85 0 l0 714 ZM312 63 q43 0 73 17 q30 17 48 45 q18 28 26 64 q8 36 8 74 q0 36 -9.5 70.5 q-9.5 34.5 -29 61.5 q-19.5 27 -50 43 q-30.5 16 -71.5 16 q-43 0 -73 -17 q-30 -17 -49 -44.5 q-19 -27.5 -27.5 -62.5 q-8.5 -35 -8.5 -71 q0 -38 9 -73.5 q9 -35.5 28.5 -62.5 q19.5 -27 50.5 -43.5 q31 -16.5 75 -16.5 Z" /><glyph glyph-name="afii10083" unicode="&#x441;" d="M278 -11 q-59 0 -104.5 19 q-45.5 19 -76 54 q-30.5 35 -46 83 q-15.5 48 -15.5 107 q0 58 15 108.5 q15 50.5 45.5 88 q30.5 37.5 76 59 q45.5 21.5 107.5 21.5 q44 0 82.5 -10.5 q38.5 -10.5 68 -32.5 q29.5 -22 48.5 -55.5 q19 -33.5 24 -79.5 l-88 0 q-10 49 -42 76 q-32 27 -86 27 q-46 0 -77 -17 q-31 -17 -49.5 -45 q-18.5 -28 -26.5 -64.5 q-8 -36.5 -8 -75.5 q0 -36 8.5 -70 q8.5 -34 26.5 -60.5 q18 -26.5 46.5 -42.5 q28.5 -16 69.5 -16 q63 0 98.5 33 q35.5 33 43.5 93 l87 0 q-14 -97 -71 -148.5 q-57 -51.5 -157 -51.5 Z" /><glyph glyph-name="afii10084" unicode="&#x442;" d="M189 442 l-185 0 l0 75 l455 0 l0 -75 l-185 0 l0 -442 l-85 0 l0 442 Z" /><glyph glyph-name="afii10085" unicode="&#x443;" d="M117 -206 q-15 0 -30 2 q-15 2 -29 7 l0 78 q12 -4 24.5 -8 q12.5 -4 25.5 -4 q26 0 42 12 q16 12 28 35 l35 87 l-205 514 l96 0 l151 -423 l2 0 l145 423 l90 0 l-225 -585 q-15 -38 -29.5 -64 q-14.5 -26 -32 -42.5 q-17.5 -16.5 -39 -24 q-21.5 -7.5 -49.5 -7.5 Z" /><glyph glyph-name="afii10086" unicode="&#x444;" d="M358 39 q-9 -9 -22 -18 q-13 -9 -27.5 -16 q-14.5 -7 -30 -11.5 q-15.5 -4.5 -30.5 -4.5 q-58 0 -97.5 23 q-39.5 23 -64 61.5 q-24.5 38.5 -35.5 88.5 q-11 50 -11 104 q0 124 54 193.5 q54 69.5 147 69.5 q16 0 33.5 -5 q17.5 -5 33 -13 q15.5 -8 29 -18 q13.5 -10 21.5 -20 l0 241 l84 0 l0 -241 q8 10 21 20 q13 10 29 18 q16 8 33 13 q17 5 34 5 q93 0 147 -69.5 q54 -69.5 54 -193.5 q0 -54 -11 -104 q-11 -50 -35.5 -88.5 q-24.5 -38.5 -64 -61.5 q-39.5 -23 -97.5 -23 q-29 0 -61.5 15.5 q-32.5 15.5 -48.5 34.5 l0 -236 l-84 0 l0 236 ZM258 59 q39 0 67 19.5 q28 19.5 33 47.5 l0 260 q-6 21 -18 34.5 q-12 13.5 -26.5 22 q-14.5 8.5 -30.5 12 q-16 3.5 -30 3.5 q-33 0 -56.5 -14.5 q-23.5 -14.5 -39 -40 q-15.5 -25.5 -22.5 -61.5 q-7 -36 -7 -78 q0 -36 6 -72.5 q6 -36.5 20.5 -66 q14.5 -29.5 39.5 -48 q25 -18.5 64 -18.5 ZM542 59 q39 0 64 18.5 q25 18.5 39.5 48 q14.5 29.5 20.5 66 q6 36.5 6 72.5 q0 42 -7 78 q-7 36 -22.5 61.5 q-15.5 25.5 -39 40 q-23.5 14.5 -56.5 14.5 q-14 0 -30 -3.5 q-16 -3.5 -30.5 -12 q-14.5 -8.5 -26.5 -22 q-12 -13.5 -18 -34.5 l0 -260 q5 -28 33 -47.5 q28 -19.5 67 -19.5 Z" /><glyph glyph-name="afii10087" unicode="&#x445;" d="M203 272 l-180 245 l109 0 l124 -181 l129 181 l102 0 l-178 -238 l200 -279 l-109 0 l-144 214 l-144 -214 l-103 0 l194 272 Z" /><glyph glyph-name="afii10088" unicode="&#x446;" d="M467 0 l-403 0 l0 517 l85 0 l0 -442 l244 0 l0 442 l85 0 l0 -442 l70 0 l0 -232 l-81 0 l0 157 Z" /><glyph glyph-name="afii10089" unicode="&#x447;" d="M374 217 q-7 -3 -24.5 -7 q-17.5 -4 -40 -8 q-22.5 -4 -47.5 -7 q-25 -3 -48 -3 q-78 0 -123 36.5 q-45 36.5 -45 111.5 l0 177 l85 0 l0 -163 q0 -51 25.5 -70.5 q25.5 -19.5 73.5 -19.5 q19 0 41 2.5 q22 2.5 42.5 6.5 q20.5 4 36.5 8 q16 4 24 6 l0 230 l85 0 l0 -517 l-85 0 l0 217 Z" /><glyph glyph-name="afii10090" unicode="&#x448;" d="M64 517 l85 0 l0 -442 l213 0 l0 442 l85 0 l0 -442 l213 0 l0 442 l85 0 l0 -517 l-681 0 l0 517 Z" /><glyph glyph-name="afii10091" unicode="&#x449;" d="M734 0 l-670 0 l0 517 l85 0 l0 -442 l213 0 l0 442 l85 0 l0 -442 l213 0 l0 442 l85 0 l0 -442 l70 0 l0 -232 l-81 0 l0 157 Z" /><glyph glyph-name="afii10092" unicode="&#x44a;" d="M152 442 l-149 0 l0 75 l234 0 l0 -198 l184 0 q76 0 122 -41.5 q46 -41.5 46 -116.5 q0 -73 -44 -117 q-44 -44 -120 -44 l-273 0 l0 442 ZM394 75 q107 0 107 86 q0 85 -107 85 l-157 0 l0 -171 l157 0 Z" /><glyph glyph-name="afii10093" unicode="&#x44b;" d="M64 517 l85 0 l0 -198 l160 0 q76 0 122 -41.5 q46 -41.5 46 -116.5 q0 -73 -44 -117 q-44 -44 -120 -44 l-249 0 l0 517 ZM282 75 q107 0 107 86 q0 85 -107 85 l-133 0 l0 -171 l133 0 ZM559 517 l85 0 l0 -517 l-85 0 l0 517 Z" /><glyph glyph-name="afii10094" unicode="&#x44c;" d="M69 517 l85 0 l0 -198 l184 0 q76 0 122 -41.5 q46 -41.5 46 -116.5 q0 -73 -44 -117 q-44 -44 -120 -44 l-273 0 l0 517 ZM311 75 q107 0 107 86 q0 85 -107 85 l-157 0 l0 -171 l157 0 Z" /><glyph glyph-name="afii10095" unicode="&#x44d;" d="M250 -11 q-94 0 -152 48.5 q-58 48.5 -65 137.5 l87 0 q21 -115 132 -115 q69 0 111.5 44.5 q42.5 44.5 47.5 129.5 l-216 0 l0 69 l215 0 q-11 73 -49.5 114 q-38.5 41 -108.5 41 q-99 0 -127 -94 l-88 0 q14 81 69.5 123 q55.5 42 146.5 42 q57 0 103 -17.5 q46 -17.5 78 -51.5 q32 -34 49.5 -82.5 q17.5 -48.5 17.5 -111.5 q0 -63 -16.5 -114.5 q-16.5 -51.5 -49 -87.5 q-32.5 -36 -79 -55.5 q-46.5 -19.5 -106.5 -19.5 Z" /><glyph glyph-name="afii10096" unicode="&#x44e;" d="M497 -11 q-55 0 -98 18.5 q-43 18.5 -74 51 q-31 32.5 -48.5 77 q-17.5 44.5 -20.5 97.5 l-107 0 l0 -233 l-85 0 l0 517 l85 0 l0 -211 l110 0 q6 48 24.5 89 q18.5 41 48.5 70.5 q30 29.5 71.5 46.5 q41.5 17 93.5 17 q58 0 102.5 -21 q44.5 -21 75.5 -57.5 q31 -36.5 47 -86 q16 -49.5 16 -106.5 q0 -57 -16 -106 q-16 -49 -47 -85.5 q-31 -36.5 -75.5 -57 q-44.5 -20.5 -102.5 -20.5 ZM497 63 q31 0 59 13 q28 13 48 37.5 q20 24.5 32 61 q12 36.5 12 83.5 q0 47 -12 83.5 q-12 36.5 -32 61.5 q-20 25 -48 38 q-28 13 -59 13 q-32 0 -59.5 -13 q-27.5 -13 -47.5 -38 q-20 -25 -32 -61.5 q-12 -36.5 -12 -83.5 q0 -94 42 -144.5 q42 -50.5 109 -50.5 Z" /><glyph glyph-name="afii10097" unicode="&#x44f;" d="M173 202 q-55 8 -90 50 q-35 42 -35 106 q0 73 43.5 116 q43.5 43 118.5 43 l262 0 l0 -517 l-85 0 l0 199 l-113 0 l-158 -199 l-113 0 l170 202 ZM387 272 l0 170 l-150 0 q-54 0 -78 -23 q-24 -23 -24 -62 q0 -40 24 -62.5 q24 -22.5 78 -22.5 l150 0 Z" /><glyph glyph-name="uni0450" unicode="&#x450;" d="M284 -11 q-62 0 -108.5 20 q-46.5 20 -77.5 56 q-31 36 -46.5 86 q-15.5 50 -15.5 109 q0 58 18 107.5 q18 49.5 50.5 85.5 q32.5 36 77 56 q44.5 20 97.5 20 q69 0 114.5 -28.5 q45.5 -28.5 73 -72.5 q27.5 -44 38 -96 q10.5 -52 8.5 -99 l-387 0 q-1 -34 8 -64.5 q9 -30.5 29 -54 q20 -23.5 51 -37.5 q31 -14 73 -14 q54 0 88.5 25 q34.5 25 45.5 76 l84 0 q-17 -88 -75 -131.5 q-58 -43.5 -146 -43.5 ZM423 308 q-2 30 -13.5 57 q-11.5 27 -31 46.5 q-19.5 19.5 -46 31 q-26.5 11.5 -58.5 11.5 q-33 0 -59.5 -11.5 q-26.5 -11.5 -45.5 -31.5 q-19 -20 -30 -46.5 q-11 -26.5 -13 -56.5 l297 0 ZM259 731 l86 -143 l-64 0 l-130 143 l108 0 Z" /><glyph glyph-name="afii10071" unicode="&#x451;" d="M284 -11 q-62 0 -108.5 20 q-46.5 20 -77.5 56 q-31 36 -46.5 86 q-15.5 50 -15.5 109 q0 58 18 107.5 q18 49.5 50.5 85.5 q32.5 36 77 56 q44.5 20 97.5 20 q69 0 114.5 -28.5 q45.5 -28.5 73 -72.5 q27.5 -44 38 -96 q10.5 -52 8.5 -99 l-387 0 q-1 -34 8 -64.5 q9 -30.5 29 -54 q20 -23.5 51 -37.5 q31 -14 73 -14 q54 0 88.5 25 q34.5 25 45.5 76 l84 0 q-17 -88 -75 -131.5 q-58 -43.5 -146 -43.5 ZM423 308 q-2 30 -13.5 57 q-11.5 27 -31 46.5 q-19.5 19.5 -46 31 q-26.5 11.5 -58.5 11.5 q-33 0 -59.5 -11.5 q-26.5 -11.5 -45.5 -31.5 q-19 -20 -30 -46.5 q-11 -26.5 -13 -56.5 l297 0 ZM219 696 l0 -104 l-89 0 l0 104 l89 0 ZM407 696 l0 -104 l-90 0 l0 104 l90 0 Z" /><glyph glyph-name="afii10099" unicode="&#x452;" d="M291 -197 q-12 0 -30 1 q-18 1 -32 3 l0 76 q11 -2 26.5 -2.5 q15.5 -0.5 25.5 -0.5 q72 0 104 37 q32 37 32 121 l0 292 q0 55 -29 84 q-29 29 -80 29 q-30 0 -57 -10 q-27 -10 -47.5 -29 q-20.5 -19 -32.5 -48 q-12 -29 -12 -66 l0 -290 l-85 0 l0 566 l-95 0 l0 70 l95 0 l0 78 l85 0 l0 -78 l206 0 l0 -70 l-206 0 l0 -140 l2 0 q47 91 167 91 q174 0 174 -189 l0 -299 q0 -112 -52.5 -169 q-52.5 -57 -158.5 -57 Z" /><glyph glyph-name="afii10100" unicode="&#x453;" d="M66 517 l354 0 l0 -75 l-269 0 l0 -442 l-85 0 l0 517 ZM369 731 l-131 -143 l-64 0 l86 143 l109 0 Z" /><glyph glyph-name="afii10101" unicode="&#x454;" d="M287 -11 q-60 0 -106.5 19.5 q-46.5 19.5 -79 55.5 q-32.5 36 -49 87.5 q-16.5 51.5 -16.5 114.5 q0 63 17.5 111.5 q17.5 48.5 49.5 82.5 q32 34 78 51.5 q46 17.5 103 17.5 q91 0 146.5 -42 q55.5 -42 69.5 -123 l-88 0 q-28 94 -127 94 q-70 0 -108.5 -41 q-38.5 -41 -49.5 -114 l215 0 l0 -69 l-216 0 q5 -85 47.5 -129.5 q42.5 -44.5 111.5 -44.5 q111 0 132 115 l87 0 q-7 -89 -65 -137.5 q-58 -48.5 -152 -48.5 Z" /><glyph glyph-name="afii10102" unicode="&#x455;" d="M250 -11 q-44 0 -82.5 9 q-38.5 9 -68.5 29.5 q-30 20.5 -48 54 q-18 33.5 -20 81.5 l85 0 q1 -29 13 -48 q12 -19 31.5 -30.5 q19.5 -11.5 44 -16.5 q24.5 -5 50.5 -5 q20 0 42 3 q22 3 40.5 11 q18.5 8 30.5 23.5 q12 15.5 12 39.5 q0 33 -25 50 q-25 17 -62.5 27.5 q-37.5 10.5 -81.5 19 q-44 8.5 -81.5 24 q-37.5 15.5 -62.5 43.5 q-25 28 -25 78 q0 39 17.5 67 q17.5 28 45 45.5 q27.5 17.5 62 26 q34.5 8.5 68.5 8.5 q43 0 80.5 -7.5 q37.5 -7.5 66 -26 q28.5 -18.5 45.5 -50 q17 -31.5 20 -78.5 l-85 0 q-2 25 -13 41.5 q-11 16.5 -28 26.5 q-17 10 -37.5 14.5 q-20.5 4.5 -41.5 4.5 q-19 0 -38.5 -3 q-19.5 -3 -35.5 -10.5 q-16 -7.5 -26 -20.5 q-10 -13 -10 -32 q0 -23 15.5 -37 q15.5 -14 39.5 -23.5 q24 -9.5 54 -16 q30 -6.5 60 -13.5 q32 -7 62.5 -17 q30.5 -10 54 -26.5 q23.5 -16.5 38 -41.5 q14.5 -25 14.5 -62 q0 -47 -19.5 -78 q-19.5 -31 -51 -50 q-31.5 -19 -71 -26.5 q-39.5 -7.5 -78.5 -7.5 Z" /><glyph glyph-name="afii10103" unicode="&#x456;" d="M69 517 l85 0 l0 -517 l-85 0 l0 517 ZM69 714 l85 0 l0 -104 l-85 0 l0 104 Z" /><glyph glyph-name="afii10104" unicode="&#x457;" d="M62 696 l0 -104 l-89 0 l0 104 l89 0 ZM250 696 l0 -104 l-90 0 l0 104 l90 0 ZM69 517 l85 0 l0 -517 l-85 0 l0 517 Z" /><glyph glyph-name="afii10105" unicode="&#x458;" d="M30 -197 q-11 0 -22 1 q-11 1 -21 3 l0 73 q5 -1 14 -1.5 q9 -0.5 20 -0.5 q28 0 38 15.5 q10 15.5 10 55.5 l0 568 l85 0 l0 -582 q0 -69 -33.5 -100.5 q-33.5 -31.5 -90.5 -31.5 ZM69 714 l85 0 l0 -104 l-85 0 l0 104 Z" /><glyph glyph-name="afii10106" unicode="&#x459;" d="M68 -6 q-19 0 -39 2.5 q-20 2.5 -29 4.5 l0 69 q10 -3 27 -4 q17 -1 25 -1 q33 0 47.5 23.5 q14.5 23.5 21.5 65.5 q3 20 6 50.5 q3 30.5 5 74 q2 43.5 3 102.5 q1 59 1 136 l363 0 l0 -198 l184 0 q76 0 122 -41.5 q46 -41.5 46 -116.5 q0 -73 -44 -117 q-44 -44 -120 -44 l-273 0 l0 442 l-196 0 q0 -117 -4 -189 q-4 -72 -11 -115 q-11 -66 -43 -105 q-32 -39 -92 -39 ZM656 75 q107 0 107 86 q0 85 -107 85 l-157 0 l0 -171 l157 0 Z" /><glyph glyph-name="afii10107" unicode="&#x45a;" d="M64 517 l85 0 l0 -204 l262 0 l0 204 l85 0 l0 -204 l184 0 q76 0 122 -40 q46 -40 46 -115 q0 -73 -44 -115.5 q-44 -42.5 -120 -42.5 l-273 0 l0 240 l-262 0 l0 -240 l-85 0 l0 517 ZM653 75 q107 0 107 83 q0 43 -26.5 62.5 q-26.5 19.5 -80.5 19.5 l-157 0 l0 -165 l157 0 Z" /><glyph glyph-name="afii10108" unicode="&#x45b;" d="M74 566 l-95 0 l0 70 l95 0 l0 78 l85 0 l0 -78 l206 0 l0 -70 l-206 0 l0 -137 l2 0 q10 24 28 40.5 q18 16.5 40.5 27 q22.5 10.5 47 15.5 q24.5 5 47.5 5 q51 0 85 -14 q34 -14 55 -39 q21 -25 29.5 -59.5 q8.5 -34.5 8.5 -76.5 l0 -328 l-85 0 l0 338 q0 48 -28 76 q-28 28 -77 28 q-39 0 -67.5 -12 q-28.5 -12 -47.5 -34 q-19 -22 -28.5 -51.5 q-9.5 -29.5 -9.5 -64.5 l0 -280 l-85 0 l0 566 Z" /><glyph glyph-name="afii10109" unicode="&#x45c;" d="M64 517 l85 0 l0 -247 l237 247 l113 0 l-208 -204 l235 -313 l-109 0 l-187 254 l-81 -79 l0 -175 l-85 0 l0 517 ZM410 731 l-131 -143 l-64 0 l86 143 l109 0 Z" /><glyph glyph-name="uni045D" unicode="&#x45d;" d="M64 517 l85 0 l0 -422 l244 422 l109 0 l0 -517 l-85 0 l0 422 l-244 -422 l-109 0 l0 517 ZM274 731 l86 -143 l-64 0 l-130 143 l108 0 Z" /><glyph glyph-name="afii10110" unicode="&#x45e;" d="M117 -206 q-15 0 -30 2 q-15 2 -29 7 l0 78 q12 -4 24.5 -8 q12.5 -4 25.5 -4 q26 0 42 12 q16 12 28 35 l35 87 l-205 514 l96 0 l151 -423 l2 0 l145 423 l90 0 l-225 -585 q-15 -38 -29.5 -64 q-14.5 -26 -32 -42.5 q-17.5 -16.5 -39 -24 q-21.5 -7.5 -49.5 -7.5 ZM256 593 q-59 0 -97.5 36.5 q-38.5 36.5 -46.5 96.5 l51 0 q11 -36 34.5 -52.5 q23.5 -16.5 57.5 -16.5 q35 0 57.5 16.5 q22.5 16.5 34.5 52.5 l51 0 q-10 -60 -46 -96.5 q-36 -36.5 -96 -36.5 Z" /><glyph glyph-name="afii10193" unicode="&#x45f;" d="M232 0 l-168 0 l0 517 l85 0 l0 -442 l252 0 l0 442 l85 0 l0 -517 l-169 0 l0 -157 l-85 0 l0 157 Z" /><glyph glyph-name="afii10146" unicode="&#x462;" d="M160 541 l-160 0 l0 80 l160 0 l0 93 l95 0 l0 -93 l238 0 l0 -80 l-238 0 l0 -118 l218 0 q106 0 162.5 -54.5 q56.5 -54.5 56.5 -157.5 q0 -102 -56.5 -156.5 q-56.5 -54.5 -162.5 -54.5 l-313 0 l0 541 ZM441 80 q156 0 156 131 q0 133 -156 133 l-186 0 l0 -264 l186 0 Z" /><glyph glyph-name="afii10194" unicode="&#x463;" d="M116 442 l-120 0 l0 75 l120 0 l0 197 l85 0 l0 -197 l185 0 l0 -75 l-185 0 l0 -123 l184 0 q76 0 122 -41.5 q46 -41.5 46 -116.5 q0 -73 -44 -117 q-44 -44 -120 -44 l-273 0 l0 442 ZM358 75 q107 0 107 86 q0 85 -107 85 l-157 0 l0 -171 l157 0 Z" /><glyph glyph-name="uni046A" unicode="&#x46a;" d="M63 195 q0 30 7 66.5 q7 36.5 31.5 68.5 q24.5 32 72 53.5 q47.5 21.5 129.5 21.5 l74 0 l-202 309 l584 0 l-202 -309 l75 0 q82 0 129.5 -21.5 q47.5 -21.5 72 -53.5 q24.5 -32 31.5 -68.5 q7 -36.5 7 -66.5 l0 -195 l-95 0 l0 189 q0 22 -2.5 46.5 q-2.5 24.5 -16.5 44.5 q-14 20 -43 33.5 q-29 13.5 -83 13.5 l-117 0 l0 -327 l-95 0 l0 327 l-117 0 q-54 0 -83 -13.5 q-29 -13.5 -43 -33.5 q-14 -20 -16.5 -44.5 q-2.5 -24.5 -2.5 -46.5 l0 -189 l-95 0 l0 195 ZM605 639 l-271 0 l133 -220 l138 220 Z" /><glyph glyph-name="uni046B" unicode="&#x46b;" d="M50 147 q0 75 45 111.5 q45 36.5 123 36.5 l72 0 l-158 222 l464 0 l-162 -222 l77 0 q78 0 123 -36.5 q45 -36.5 45 -111.5 l0 -147 l-85 0 l0 136 q0 51 -25.5 70.5 q-25.5 19.5 -73.5 19.5 l-88 0 l0 -226 l-85 0 l0 226 l-88 0 q-48 0 -73.5 -19.5 q-25.5 -19.5 -25.5 -70.5 l0 -136 l-85 0 l0 147 ZM456 453 l-179 0 l88 -139 l91 139 Z" /><glyph glyph-name="afii10147" unicode="&#x472;" d="M380 -16 q-85 0 -149 30.5 q-64 30.5 -107 82.5 q-43 52 -64.5 119 q-21.5 67 -21.5 141 q0 73 21.5 140.5 q21.5 67.5 64.5 119.5 q43 52 107 83 q64 31 149 31 q85 0 149 -31 q64 -31 107 -83 q43 -52 64.5 -119.5 q21.5 -67.5 21.5 -140.5 q0 -74 -21.5 -141 q-21.5 -67 -64.5 -119 q-43 -52 -107 -82.5 q-64 -30.5 -149 -30.5 ZM380 63 q61 0 106 22.5 q45 22.5 75 60 q30 37.5 46 85 q16 47.5 19 98.5 q-27 -21 -59 -38 q-32 -17 -66 -17 q-27 0 -60 13.5 q-33 13.5 -66 29 q-33 15.5 -64 29 q-31 13.5 -55 13.5 q-20 0 -37 -6 q-17 -6 -32 -15.5 q-15 -9.5 -27.5 -20.5 q-12.5 -11 -22.5 -21 q7 -46 24.5 -88 q17.5 -42 47.5 -74.5 q30 -32.5 72.5 -51.5 q42.5 -19 98.5 -19 ZM502 352 q18 0 35.5 6 q17.5 6 32.5 15 q15 9 28.5 20 q13.5 11 24.5 21 q-7 46 -24.5 89 q-17.5 43 -47 76 q-29.5 33 -72 52.5 q-42.5 19.5 -99.5 19.5 q-62 0 -107 -23 q-45 -23 -75 -61 q-30 -38 -46 -87 q-16 -49 -19 -100 q26 21 59.5 39 q33.5 18 68.5 18 q30 0 64.5 -13.5 q34.5 -13.5 67.5 -29 q33 -15.5 61.5 -29 q28.5 -13.5 47.5 -13.5 Z" /><glyph glyph-name="afii10195" unicode="&#x473;" d="M287 -11 q-62 0 -108.5 20.5 q-46.5 20.5 -78.5 57 q-32 36.5 -48 85.5 q-16 49 -16 106 q0 57 16 106.5 q16 49.5 48 86 q32 36.5 78.5 57.5 q46.5 21 108.5 21 q61 0 108 -21 q47 -21 79 -57.5 q32 -36.5 48 -86 q16 -49.5 16 -106.5 q0 -57 -16 -106 q-16 -49 -48 -85.5 q-32 -36.5 -79 -57 q-47 -20.5 -108 -20.5 ZM287 58 q33 0 62.5 13.5 q29.5 13.5 51.5 38.5 q22 25 35 61 q13 36 14 82 q-20 -19 -41.5 -31.5 q-21.5 -12.5 -45.5 -12.5 q-22 0 -43 9 q-21 9 -41 20 q-20 11 -39 20 q-19 9 -35 9 q-22 0 -42.5 -12 q-20.5 -12 -37.5 -28 q4 -40 18.5 -71.5 q14.5 -31.5 36 -53 q21.5 -21.5 49 -33 q27.5 -11.5 58.5 -11.5 ZM364 270 q21 0 42 13 q21 13 38 30 q-14 69 -57 107.5 q-43 38.5 -100 38.5 q-30 0 -57.5 -11.5 q-27.5 -11.5 -49 -33 q-21.5 -21.5 -36 -52.5 q-14.5 -31 -18.5 -70 q17 15 37.5 26 q20.5 11 46.5 11 q18 0 39.5 -9 q21.5 -9 43 -20.5 q21.5 -11.5 40.5 -20.5 q19 -9 31 -9 Z" /><glyph glyph-name="afii10148" unicode="&#x474;" d="M0 714 l102 0 l204 -619 l2 0 l151 505 q38 124 150 124 q15 0 39.5 -3 q24.5 -3 38.5 -7 l0 -80 q-24 6 -61 6 q-29 0 -49 -15 q-20 -15 -33 -55 l-185 -570 l-108 0 l-251 714 Z" /><glyph glyph-name="afii10196" unicode="&#x475;" d="M14 517 l95 0 l145 -431 l2 0 l102 334 q15 48 43.5 77 q28.5 29 79.5 29 q19 0 34.5 -2 q15.5 -2 24.5 -4 l0 -69 q-10 3 -22.5 3.5 q-12.5 0.5 -20.5 0.5 q-26 0 -40 -16.5 q-14 -16.5 -23 -42.5 l-132 -396 l-100 0 l-188 517 Z" /><glyph glyph-name="uni048C" unicode="&#x48c;" d="M160 634 l-150 0 l0 80 l150 0 l0 105 l95 0 l0 -105 l162 0 l0 -80 l-162 0 l0 -211 l218 0 q106 0 162.5 -54.5 q56.5 -54.5 56.5 -157.5 q0 -102 -56.5 -156.5 q-56.5 -54.5 -162.5 -54.5 l-313 0 l0 634 ZM441 80 q156 0 156 131 q0 133 -156 133 l-186 0 l0 -264 l186 0 Z" /><glyph glyph-name="uni048D" unicode="&#x48d;" d="M100 442 l-100 0 l0 75 l100 0 l0 108 l85 0 l0 -108 l111 0 l0 -75 l-111 0 l0 -123 l184 0 q76 0 122 -41.5 q46 -41.5 46 -116.5 q0 -73 -44 -117 q-44 -44 -120 -44 l-273 0 l0 442 ZM342 75 q107 0 107 86 q0 85 -107 85 l-157 0 l0 -171 l157 0 Z" /><glyph glyph-name="afii10050" unicode="&#x490;" d="M84 714 l369 0 l0 159 l95 0 l0 -239 l-369 0 l0 -634 l-95 0 l0 714 Z" /><glyph glyph-name="afii10098" unicode="&#x491;" d="M66 517 l269 0 l0 155 l85 0 l0 -230 l-269 0 l0 -442 l-85 0 l0 517 Z" /><glyph glyph-name="uni0492" unicode="&#x492;" d="M145 327 l-123 0 l0 80 l123 0 l0 307 l464 0 l0 -80 l-369 0 l0 -227 l200 0 l0 -80 l-200 0 l0 -327 l-95 0 l0 327 Z" /><glyph glyph-name="uni0493" unicode="&#x493;" d="M113 222 l-93 0 l0 75 l93 0 l0 220 l354 0 l0 -75 l-269 0 l0 -145 l166 0 l0 -75 l-166 0 l0 -222 l-85 0 l0 222 Z" /><glyph glyph-name="uni0496" unicode="&#x496;" d="M940 0 l-44 0 l-260 354 l-84 -88 l0 -266 l-93 0 l0 266 l-84 88 l-260 -354 l-118 0 l316 420 l-284 294 l118 0 l312 -333 l0 333 l93 0 l0 -333 l312 333 l118 0 l-284 -294 l256 -340 l77 0 l0 -257 l-91 0 l0 177 Z" /><glyph glyph-name="uni0497" unicode="&#x497;" d="M716 0 l-38 0 l-177 250 l-67 -65 l0 -185 l-85 0 l0 185 l-67 65 l-177 -250 l-105 0 l226 304 l-197 213 l105 0 l215 -240 l0 240 l85 0 l0 -240 l215 240 l105 0 l-197 -213 l170 -229 l70 0 l0 -232 l-81 0 l0 157 Z" /><glyph glyph-name="uni0498" unicode="&#x498;" d="M307 -209 q-24 0 -46.5 5.5 q-22.5 5.5 -45.5 13.5 l18 44 q12 -5 28.5 -9 q16.5 -4 32.5 -4 q10 0 21 1.5 q11 1.5 20 5.5 q9 4 15 9.5 q6 5.5 6 14.5 q0 14 -13.5 22.5 q-13.5 8.5 -33.5 8.5 q-12 0 -21 -2 q-9 -2 -20 -6 l-17 28 l49 62 q-58 4 -106.5 21 q-48.5 17 -83 47.5 q-34.5 30.5 -54 76 q-19.5 45.5 -19.5 105.5 l91 0 q1 -48 18.5 -81.5 q17.5 -33.5 46 -54 q28.5 -20.5 66.5 -29.5 q38 -9 81 -9 q37 0 69 10.5 q32 10.5 55.5 30 q23.5 19.5 37 47 q13.5 27.5 13.5 61.5 q0 39 -15 63.5 q-15 24.5 -39.5 38 q-24.5 13.5 -57 18.5 q-32.5 5 -68.5 5 q-15 0 -34 -0.5 q-19 -0.5 -30 -1.5 l0 78 q12 -2 32 -2 q20 0 32 0 q34 0 62.5 6.5 q28.5 6.5 49 21.5 q20.5 15 32 39.5 q11.5 24.5 11.5 60.5 q0 33 -12.5 55 q-12.5 22 -34 35.5 q-21.5 13.5 -49 19.5 q-27.5 6 -57.5 6 q-79 0 -124 -34.5 q-45 -34.5 -53 -112.5 l-91 0 q2 57 23.5 99.5 q21.5 42.5 57.5 70 q36 27.5 84.5 41.5 q48.5 14 105.5 14 q51 0 95.5 -11.5 q44.5 -11.5 77.5 -35.5 q33 -24 52 -60.5 q19 -36.5 19 -86.5 q0 -29 -10 -54 q-10 -25 -26.5 -45 q-16.5 -20 -38 -34.5 q-21.5 -14.5 -43.5 -21.5 l0 -3 q35 -7 62 -23.5 q27 -16.5 45 -39.5 q18 -23 27 -51 q9 -28 9 -57 q0 -33 -14.5 -71 q-14.5 -38 -47 -71.5 q-32.5 -33.5 -83.5 -56.5 q-51 -23 -123 -24 l-29 -37 l2 -2 q10 7 33 7 q32 0 58 -18 q26 -18 26 -55 q0 -25 -11.5 -42 q-11.5 -17 -29.5 -27.5 q-18 -10.5 -40 -15 q-22 -4.5 -43 -4.5 Z" /><glyph glyph-name="uni0499" unicode="&#x499;" d="M227 -209 q-24 0 -46.5 5.5 q-22.5 5.5 -45.5 13.5 l18 44 q12 -5 28.5 -9 q16.5 -4 32.5 -4 q10 0 21 1.5 q11 1.5 20 5.5 q9 4 15 9.5 q6 5.5 6 14.5 q0 14 -13.5 22.5 q-13.5 8.5 -33.5 8.5 q-12 0 -21 -2 q-9 -2 -20 -6 l-17 28 l53 67 q-89 7 -139 52 q-50 45 -55 124 l86 0 q4 -57 42 -82 q38 -25 95 -25 q61 0 94 26 q33 26 33 66 q0 39 -25 61 q-25 22 -85 22 l-69 0 l0 69 l55 0 q45 0 77 18.5 q32 18.5 32 64.5 q0 29 -27.5 51 q-27.5 22 -81.5 22 q-23 0 -45.5 -5 q-22.5 -5 -40.5 -16 q-18 -11 -30 -29 q-12 -18 -15 -44 l-86 0 q3 48 23 79.5 q20 31.5 50 50 q30 18.5 68 26.5 q38 8 77 8 q40 0 75 -8 q35 -8 61.5 -25.5 q26.5 -17.5 42 -43.5 q15.5 -26 15.5 -62 q0 -45 -25.5 -73 q-25.5 -28 -57.5 -35 l0 -2 q18 -3 36 -12 q18 -9 32 -24.5 q14 -15.5 23 -38 q9 -22.5 9 -52.5 q0 -41 -17 -71 q-17 -30 -45 -50 q-28 -20 -65 -31 q-37 -11 -76 -12 l-33 -41 l2 -2 q10 7 33 7 q32 0 58 -18 q26 -18 26 -55 q0 -25 -11.5 -42 q-11.5 -17 -29.5 -27.5 q-18 -10.5 -40 -15 q-22 -4.5 -43 -4.5 Z" /><glyph glyph-name="uni049A" unicode="&#x49a;" d="M598 0 l-48 0 l-258 361 l-119 -111 l0 -250 l-95 0 l0 714 l95 0 l0 -356 l362 356 l123 0 l-301 -288 l255 -346 l77 0 l0 -257 l-91 0 l0 177 Z" /><glyph glyph-name="uni049B" unicode="&#x49b;" d="M459 0 l-42 0 l-187 254 l-81 -79 l0 -175 l-85 0 l0 517 l85 0 l0 -247 l237 247 l113 0 l-208 -204 l179 -238 l70 0 l0 -232 l-81 0 l0 157 Z" /><glyph glyph-name="uni049C" unicode="&#x49c;" d="M78 714 l95 0 l0 -307 l60 0 l0 151 l60 0 l0 -151 l23 0 l248 307 l109 0 l-275 -340 l282 -374 l-120 0 l-244 327 l-23 0 l0 -154 l-60 0 l0 154 l-60 0 l0 -327 l-95 0 l0 714 Z" /><glyph glyph-name="uni049D" unicode="&#x49d;" d="M64 517 l85 0 l0 -206 l45 0 l0 104 l55 0 l0 -104 l17 0 l175 206 l103 0 l-204 -235 l211 -282 l-109 0 l-176 238 l-17 0 l0 -118 l-55 0 l0 118 l-45 0 l0 -238 l-85 0 l0 517 Z" /><glyph glyph-name="uni04A0" unicode="&#x4a0;" d="M203 634 l-201 0 l0 80 l296 0 l0 -356 l362 356 l123 0 l-301 -288 l313 -426 l-120 0 l-258 361 l-119 -111 l0 -250 l-95 0 l0 634 Z" /><glyph glyph-name="uni04A1" unicode="&#x4a1;" d="M152 442 l-149 0 l0 75 l234 0 l0 -247 l237 247 l113 0 l-208 -204 l235 -313 l-109 0 l-187 254 l-81 -79 l0 -175 l-85 0 l0 442 Z" /><glyph glyph-name="uni04A2" unicode="&#x4a2;" d="M630 0 l-81 0 l0 327 l-376 0 l0 -327 l-95 0 l0 714 l95 0 l0 -307 l376 0 l0 307 l95 0 l0 -634 l77 0 l0 -257 l-91 0 l0 177 Z" /><glyph glyph-name="uni04A3" unicode="&#x4a3;" d="M485 0 l-74 0 l0 238 l-262 0 l0 -238 l-85 0 l0 517 l85 0 l0 -206 l262 0 l0 206 l85 0 l0 -442 l70 0 l0 -232 l-81 0 l0 157 Z" /><glyph glyph-name="uni04A4" unicode="&#x4a4;" d="M78 714 l95 0 l0 -307 l376 0 l0 307 l464 0 l0 -80 l-369 0 l0 -634 l-95 0 l0 327 l-376 0 l0 -327 l-95 0 l0 714 Z" /><glyph glyph-name="uni04A5" unicode="&#x4a5;" d="M64 517 l85 0 l0 -206 l262 0 l0 206 l354 0 l0 -75 l-269 0 l0 -442 l-85 0 l0 238 l-262 0 l0 -238 l-85 0 l0 517 Z" /><glyph glyph-name="uni04AA" unicode="&#x4aa;" d="M367 -209 q-24 0 -46.5 5.5 q-22.5 5.5 -45.5 13.5 l18 44 q12 -5 28.5 -9 q16.5 -4 32.5 -4 q10 0 21 1.5 q11 1.5 20 5.5 q9 4 15 9.5 q6 5.5 6 14.5 q0 14 -13.5 22.5 q-13.5 8.5 -33.5 8.5 q-12 0 -21 -2 q-9 -2 -20 -6 l-17 28 l48 62 q-80 2 -139 31.5 q-59 29.5 -98.5 79 q-39.5 49.5 -59 116 q-19.5 66.5 -19.5 143.5 q0 78 22 146.5 q22 68.5 64.5 119.5 q42.5 51 105.5 80.5 q63 29.5 146 29.5 q56 0 106 -15 q50 -15 89 -44 q39 -29 65 -72.5 q26 -43.5 34 -100.5 l-95 0 q-16 76 -70.5 114 q-54.5 38 -129.5 38 q-64 0 -109.5 -24 q-45.5 -24 -75 -64.5 q-29.5 -40.5 -43.5 -92.5 q-14 -52 -14 -108 q0 -61 14 -115.5 q14 -54.5 43.5 -95 q29.5 -40.5 75.5 -64.5 q46 -24 110 -24 q46 0 83 15.5 q37 15.5 63.5 43 q26.5 27.5 41.5 65.5 q15 38 18 82 l95 0 q-14 -129 -84.5 -202.5 q-70.5 -73.5 -195.5 -81.5 l-30 -37 l2 -2 q10 7 33 7 q32 0 58 -18 q26 -18 26 -55 q0 -25 -11.5 -42 q-11.5 -17 -29.5 -27.5 q-18 -10.5 -40 -15 q-22 -4.5 -43 -4.5 Z" /><glyph glyph-name="uni04AB" unicode="&#x4ab;" d="M257 -209 q-24 0 -46.5 5.5 q-22.5 5.5 -45.5 13.5 l18 44 q12 -5 28.5 -9 q16.5 -4 32.5 -4 q10 0 21 1.5 q11 1.5 20 5.5 q9 4 15 9.5 q6 5.5 6 14.5 q0 14 -13.5 22.5 q-13.5 8.5 -33.5 8.5 q-12 0 -21 -2 q-9 -2 -20 -6 l-17 28 l53 67 q-54 4 -94.5 24.5 q-40.5 20.5 -68 55 q-27.5 34.5 -41.5 80.5 q-14 46 -14 102 q0 58 15 108.5 q15 50.5 45.5 88 q30.5 37.5 76 59 q45.5 21.5 107.5 21.5 q44 0 82.5 -10.5 q38.5 -10.5 68 -32.5 q29.5 -22 48.5 -55.5 q19 -33.5 24 -79.5 l-88 0 q-10 49 -42 76 q-32 27 -86 27 q-46 0 -77 -17 q-31 -17 -49.5 -45 q-18.5 -28 -26.5 -64.5 q-8 -36.5 -8 -75.5 q0 -36 8.5 -70 q8.5 -34 26.5 -60.5 q18 -26.5 46.5 -42.5 q28.5 -16 69.5 -16 q63 0 98.5 33 q35.5 33 43.5 93 l87 0 q-14 -93 -66.5 -143.5 q-52.5 -50.5 -144.5 -55.5 l-33 -42 l2 -2 q10 7 33 7 q32 0 58 -18 q26 -18 26 -55 q0 -25 -11.5 -42 q-11.5 -17 -29.5 -27.5 q-18 -10.5 -40 -15 q-22 -4.5 -43 -4.5 Z" /><glyph glyph-name="uni04AE" unicode="&#x4ae;" d="M278 292 l-276 422 l113 0 l214 -340 l209 340 l108 0 l-273 -422 l0 -292 l-95 0 l0 292 Z" /><glyph glyph-name="uni04AF" unicode="&#x4af;" d="M211 24 l-203 493 l96 0 l151 -403 l2 0 l145 403 l90 0 l-196 -492 l0 -222 l-85 0 l0 221 Z" /><glyph glyph-name="uni04B0" unicode="&#x4b0;" d="M278 159 l-158 0 l0 80 l158 0 l0 53 l-276 422 l113 0 l214 -340 l209 340 l108 0 l-273 -422 l0 -53 l158 0 l0 -80 l-158 0 l0 -159 l-95 0 l0 159 Z" /><glyph glyph-name="uni04B1" unicode="&#x4b1;" d="M211 -95 l-135 0 l0 75 l135 0 l0 44 l-203 493 l96 0 l151 -403 l2 0 l145 403 l90 0 l-196 -492 l0 -45 l135 0 l0 -75 l-135 0 l0 -102 l-85 0 l0 102 Z" /><glyph glyph-name="uni04B2" unicode="&#x4b2;" d="M543 0 l-47 0 l-192 295 l-198 -295 l-106 0 l248 367 l-235 347 l114 0 l178 -279 l186 279 l106 0 l-236 -347 l196 -287 l77 0 l0 -257 l-91 0 l0 177 Z" /><glyph glyph-name="uni04B3" unicode="&#x4b3;" d="M445 0 l-45 0 l-144 214 l-144 -214 l-103 0 l194 272 l-180 245 l109 0 l124 -181 l129 181 l102 0 l-178 -238 l147 -204 l70 0 l0 -232 l-81 0 l0 157 Z" /><glyph glyph-name="uni04B6" unicode="&#x4b6;" d="M566 0 l-81 0 l0 309 q-13 -3 -36 -7.5 q-23 -4.5 -50.5 -9 q-27.5 -4.5 -57 -7.5 q-29.5 -3 -54.5 -3 q-82 0 -129.5 21.5 q-47.5 21.5 -72 53.5 q-24.5 32 -31.5 70.5 q-7 38.5 -7 71.5 l0 215 l94 0 l0 -207 q0 -24 2.5 -49.5 q2.5 -25.5 16.5 -46.5 q14 -21 43.5 -34.5 q29.5 -13.5 83.5 -13.5 q67 0 119 9.5 q52 9.5 79 16.5 l0 325 l95 0 l0 -634 l77 0 l0 -257 l-91 0 l0 177 Z" /><glyph glyph-name="uni04B7" unicode="&#x4b7;" d="M448 0 l-74 0 l0 217 q-7 -3 -24.5 -7 q-17.5 -4 -40 -8 q-22.5 -4 -47.5 -7 q-25 -3 -48 -3 q-78 0 -123 36.5 q-45 36.5 -45 111.5 l0 177 l85 0 l0 -163 q0 -51 25.5 -70.5 q25.5 -19.5 73.5 -19.5 q19 0 41 2.5 q22 2.5 42.5 6.5 q20.5 4 36.5 8 q16 4 24 6 l0 230 l85 0 l0 -442 l70 0 l0 -232 l-81 0 l0 157 Z" /><glyph glyph-name="uni04B8" unicode="&#x4b8;" d="M485 309 q-20 -5 -60.5 -12.5 q-40.5 -7.5 -83.5 -11.5 l0 -157 l-60 0 l0 154 q-80 1 -126.5 22.5 q-46.5 21.5 -70.5 53.5 q-24 32 -30.5 70 q-6.5 38 -6.5 71 l0 215 l94 0 l0 -207 q0 -24 2.5 -49 q2.5 -25 16 -46 q13.5 -21 42 -34.5 q28.5 -13.5 79.5 -14.5 l0 150 l60 0 l0 -148 q48 4 85 11.5 q37 7.5 59 12.5 l0 325 l95 0 l0 -714 l-95 0 l0 309 Z" /><glyph glyph-name="uni04B9" unicode="&#x4b9;" d="M374 217 q-10 -4 -36.5 -9.5 q-26.5 -5.5 -58.5 -10.5 l0 -111 l-55 0 l0 106 l-10 0 q-78 0 -123 36.5 q-45 36.5 -45 111.5 l0 177 l85 0 l0 -163 q0 -49 24 -69 q24 -20 69 -21 l0 117 l55 0 l0 -113 q30 4 57 10 q27 6 38 9 l0 230 l85 0 l0 -517 l-85 0 l0 217 Z" /><glyph glyph-name="uni04BA" unicode="&#x4ba;" d="M78 714 l95 0 l0 -299 q13 3 36 7.5 q23 4.5 50.5 9 q27.5 4.5 56.5 7.5 q29 3 55 3 q82 0 129.5 -21.5 q47.5 -21.5 72 -53.5 q24.5 -32 31.5 -70.5 q7 -38.5 7 -71.5 l0 -225 l-94 0 l0 217 q0 24 -2.5 49.5 q-2.5 25.5 -16.5 46.5 q-14 21 -43.5 34.5 q-29.5 13.5 -83.5 13.5 q-67 0 -119 -9.5 q-52 -9.5 -79 -16.5 l0 -335 l-95 0 l0 714 Z" /><glyph glyph-name="uni04BB" unicode="&#x4bb;" d="M64 714 l85 0 l0 -273 l2 0 q10 24 28 40.5 q18 16.5 40.5 27 q22.5 10.5 47 15.5 q24.5 5 47.5 5 q51 0 85 -14 q34 -14 55 -39 q21 -25 29.5 -59.5 q8.5 -34.5 8.5 -76.5 l0 -340 l-85 0 l0 350 q0 48 -28 76 q-28 28 -77 28 q-39 0 -67.5 -12 q-28.5 -12 -47.5 -34 q-19 -22 -28.5 -51.5 q-9.5 -29.5 -9.5 -64.5 l0 -292 l-85 0 l0 714 Z" /><glyph glyph-name="uni04C0" unicode="&#x4c0;" d="M82 714 l95 0 l0 -714 l-95 0 l0 714 Z" /><glyph glyph-name="uni04C1" unicode="&#x4c1;" d="M313 420 l-284 294 l118 0 l312 -333 l0 333 l93 0 l0 -333 l312 333 l118 0 l-284 -294 l316 -420 l-118 0 l-260 354 l-84 -88 l0 -266 l-93 0 l0 266 l-84 88 l-260 -354 l-118 0 l316 420 ZM506 761 q-63 0 -103.5 39 q-40.5 39 -48.5 99 l51 0 q22 -71 100 -71 q76 0 100 71 l51 0 q-10 -60 -47 -99 q-37 -39 -103 -39 Z" /><glyph glyph-name="uni04C2" unicode="&#x4c2;" d="M226 304 l-197 213 l105 0 l215 -240 l0 240 l85 0 l0 -240 l215 240 l105 0 l-197 -213 l226 -304 l-105 0 l-177 250 l-67 -65 l0 -185 l-85 0 l0 185 l-67 65 l-177 -250 l-105 0 l226 304 ZM392 593 q-59 0 -97.5 36.5 q-38.5 36.5 -46.5 96.5 l51 0 q11 -36 34.5 -52.5 q23.5 -16.5 57.5 -16.5 q35 0 57.5 16.5 q22.5 16.5 34.5 52.5 l51 0 q-10 -60 -46 -96.5 q-36 -36.5 -96 -36.5 Z" /><glyph glyph-name="uni04D0" unicode="&#x4d0;" d="M272 714 l105 0 l279 -714 l-105 0 l-78 215 l-302 0 l-80 -215 l-97 0 l278 714 ZM443 295 l-119 333 l-2 0 l-121 -333 l242 0 ZM322 761 q-63 0 -103.5 39 q-40.5 39 -48.5 99 l51 0 q22 -71 100 -71 q76 0 100 71 l51 0 q-10 -60 -47 -99 q-37 -39 -103 -39 Z" /><glyph glyph-name="uni04D1" unicode="&#x4d1;" d="M207 -11 q-35 0 -66 7.5 q-31 7.5 -54.5 25 q-23.5 17.5 -37 45 q-13.5 27.5 -13.5 66.5 q0 44 15 72 q15 28 39.5 45.5 q24.5 17.5 56 26.5 q31.5 9 64.5 15 q35 7 66.5 10.5 q31.5 3.5 55.5 10 q24 6.5 38 19 q14 12.5 14 36.5 q0 28 -10.5 45 q-10.5 17 -27 26 q-16.5 9 -37 12 q-20.5 3 -40.5 3 q-54 0 -90 -20.5 q-36 -20.5 -39 -77.5 l-85 0 q2 48 20 81 q18 33 48 53.5 q30 20.5 68.5 29.5 q38.5 9 82.5 9 q35 0 69.5 -5 q34.5 -5 62.5 -20.5 q28 -15.5 45 -43.5 q17 -28 17 -73 l0 -266 q0 -30 3.5 -44 q3.5 -14 23.5 -14 q9 0 26 5 l0 -66 q-22 -13 -61 -13 q-33 0 -52.5 18.5 q-19.5 18.5 -19.5 60.5 q-35 -42 -81.5 -60.5 q-46.5 -18.5 -100.5 -18.5 ZM226 63 q42 0 72 11.5 q30 11.5 49 29 q19 17.5 28 38 q9 20.5 9 38.5 l0 87 q-16 -13 -42 -18 q-26 -5 -54.5 -9 q-28.5 -4 -57.5 -8 q-29 -4 -52 -14 q-23 -10 -37.5 -28.5 q-14.5 -18.5 -14.5 -50.5 q0 -21 8.5 -35.5 q8.5 -14.5 22 -23.5 q13.5 -9 31.5 -13 q18 -4 38 -4 ZM282 593 q-59 0 -97.5 36.5 q-38.5 36.5 -46.5 96.5 l51 0 q11 -36 34.5 -52.5 q23.5 -16.5 57.5 -16.5 q35 0 57.5 16.5 q22.5 16.5 34.5 52.5 l51 0 q-10 -60 -46 -96.5 q-36 -36.5 -96 -36.5 Z" /><glyph glyph-name="uni04D2" unicode="&#x4d2;" d="M272 714 l105 0 l279 -714 l-105 0 l-78 215 l-302 0 l-80 -215 l-97 0 l278 714 ZM443 295 l-119 333 l-2 0 l-121 -333 l242 0 ZM274 873 l0 -104 l-89 0 l0 104 l89 0 ZM462 873 l0 -104 l-90 0 l0 104 l90 0 Z" /><glyph glyph-name="uni04D3" unicode="&#x4d3;" d="M207 -11 q-35 0 -66 7.5 q-31 7.5 -54.5 25 q-23.5 17.5 -37 45 q-13.5 27.5 -13.5 66.5 q0 44 15 72 q15 28 39.5 45.5 q24.5 17.5 56 26.5 q31.5 9 64.5 15 q35 7 66.5 10.5 q31.5 3.5 55.5 10 q24 6.5 38 19 q14 12.5 14 36.5 q0 28 -10.5 45 q-10.5 17 -27 26 q-16.5 9 -37 12 q-20.5 3 -40.5 3 q-54 0 -90 -20.5 q-36 -20.5 -39 -77.5 l-85 0 q2 48 20 81 q18 33 48 53.5 q30 20.5 68.5 29.5 q38.5 9 82.5 9 q35 0 69.5 -5 q34.5 -5 62.5 -20.5 q28 -15.5 45 -43.5 q17 -28 17 -73 l0 -266 q0 -30 3.5 -44 q3.5 -14 23.5 -14 q9 0 26 5 l0 -66 q-22 -13 -61 -13 q-33 0 -52.5 18.5 q-19.5 18.5 -19.5 60.5 q-35 -42 -81.5 -60.5 q-46.5 -18.5 -100.5 -18.5 ZM226 63 q42 0 72 11.5 q30 11.5 49 29 q19 17.5 28 38 q9 20.5 9 38.5 l0 87 q-16 -13 -42 -18 q-26 -5 -54.5 -9 q-28.5 -4 -57.5 -8 q-29 -4 -52 -14 q-23 -10 -37.5 -28.5 q-14.5 -18.5 -14.5 -50.5 q0 -21 8.5 -35.5 q8.5 -14.5 22 -23.5 q13.5 -9 31.5 -13 q18 -4 38 -4 ZM219 696 l0 -104 l-89 0 l0 104 l89 0 ZM407 696 l0 -104 l-90 0 l0 104 l90 0 Z" /><glyph glyph-name="uni04D4" unicode="&#x4d4;" d="M354 714 l535 0 l0 -80 l-351 0 l0 -227 l330 0 l0 -80 l-330 0 l0 -247 l357 0 l0 -80 l-447 0 l0 208 l-246 0 l-102 -208 l-106 0 l360 714 ZM448 288 l0 346 l-41 0 l-168 -346 l209 0 Z" /><glyph glyph-name="uni04D5" unicode="&#x4d5;" d="M211 -11 q-37 0 -69 7.5 q-32 7.5 -55.5 25 q-23.5 17.5 -37 45 q-13.5 27.5 -13.5 66.5 q0 44 15 72 q15 28 39.5 45.5 q24.5 17.5 56 26.5 q31.5 9 64.5 15 q47 9 80.5 14 q33.5 5 54.5 12.5 q21 7.5 31 20 q10 12.5 10 35.5 q0 26 -10.5 42 q-10.5 16 -27 24.5 q-16.5 8.5 -37.5 11 q-21 2.5 -42 2.5 q-54 0 -90 -20.5 q-36 -20.5 -39 -77.5 l-85 0 q2 48 20 81 q18 33 48 53.5 q30 20.5 68.5 29.5 q38.5 9 82.5 9 q23 0 48.5 -2.5 q25.5 -2.5 49 -10.5 q23.5 -8 43.5 -23 q20 -15 32 -39 q26 40 72 57.5 q46 17.5 93 17.5 q67 0 112 -23.5 q45 -23.5 72 -64 q27 -40.5 38 -94.5 q11 -54 11 -114 l-379 0 q0 -35 9.5 -65.5 q9.5 -30.5 28.5 -54 q19 -23.5 48.5 -37 q29.5 -13.5 68.5 -13.5 q48 0 83.5 24.5 q35.5 24.5 47.5 75.5 l87 0 q-19 -85 -77.5 -129.5 q-58.5 -44.5 -146.5 -44.5 q-30 0 -58 5 q-28 5 -52.5 16.5 q-24.5 11.5 -44 30.5 q-19.5 19 -32.5 48 q-29 -53 -87.5 -76.5 q-58.5 -23.5 -130.5 -23.5 ZM226 63 q42 0 72.5 11.5 q30.5 11.5 50 29 q19.5 17.5 29 38 q9.5 20.5 9.5 38.5 l0 87 q-13 -8 -31.5 -13 q-18.5 -5 -39.5 -8.5 q-21 -3.5 -43.5 -6.5 q-22.5 -3 -42.5 -7 q-21 -4 -40 -10 q-19 -6 -33 -16.5 q-14 -10.5 -22.5 -26.5 q-8.5 -16 -8.5 -40 q0 -21 8.5 -35.5 q8.5 -14.5 22 -23.5 q13.5 -9 31.5 -13 q18 -4 38 -4 ZM756 308 q-1 30 -10.5 57 q-9.5 27 -27.5 46.5 q-18 19.5 -44.5 31 q-26.5 11.5 -60.5 11.5 q-34 0 -61 -11 q-27 -11 -46 -30.5 q-19 -19.5 -29 -46.5 q-10 -27 -10 -58 l289 0 Z" /><glyph glyph-name="uni04D6" unicode="&#x4d6;" d="M78 714 l493 0 l0 -80 l-398 0 l0 -227 l371 0 l0 -80 l-371 0 l0 -247 l401 0 l0 -80 l-496 0 l0 714 ZM332 761 q-63 0 -103.5 39 q-40.5 39 -48.5 99 l51 0 q22 -71 100 -71 q76 0 100 71 l51 0 q-10 -60 -47 -99 q-37 -39 -103 -39 Z" /><glyph glyph-name="uni04D7" unicode="&#x4d7;" d="M284 -11 q-62 0 -108.5 20 q-46.5 20 -77.5 56 q-31 36 -46.5 86 q-15.5 50 -15.5 109 q0 58 18 107.5 q18 49.5 50.5 85.5 q32.5 36 77 56 q44.5 20 97.5 20 q69 0 114.5 -28.5 q45.5 -28.5 73 -72.5 q27.5 -44 38 -96 q10.5 -52 8.5 -99 l-387 0 q-1 -34 8 -64.5 q9 -30.5 29 -54 q20 -23.5 51 -37.5 q31 -14 73 -14 q54 0 88.5 25 q34.5 25 45.5 76 l84 0 q-17 -88 -75 -131.5 q-58 -43.5 -146 -43.5 ZM423 308 q-2 30 -13.5 57 q-11.5 27 -31 46.5 q-19.5 19.5 -46 31 q-26.5 11.5 -58.5 11.5 q-33 0 -59.5 -11.5 q-26.5 -11.5 -45.5 -31.5 q-19 -20 -30 -46.5 q-11 -26.5 -13 -56.5 l297 0 ZM282 593 q-59 0 -97.5 36.5 q-38.5 36.5 -46.5 96.5 l51 0 q11 -36 34.5 -52.5 q23.5 -16.5 57.5 -16.5 q35 0 57.5 16.5 q22.5 16.5 34.5 52.5 l51 0 q-10 -60 -46 -96.5 q-36 -36.5 -96 -36.5 Z" /><glyph glyph-name="uni04D8" unicode="&#x4d8;" d="M370 -16 q-88 0 -151 30.5 q-63 30.5 -103 82.5 q-40 52 -59 119 q-19 67 -19 141 q0 12 0 19.5 q0 7.5 2 19.5 l568 0 q-6 51 -24.5 98 q-18.5 47 -49 82 q-30.5 35 -73.5 56 q-43 21 -98 21 q-39 0 -74 -10.5 q-35 -10.5 -63.5 -30 q-28.5 -19.5 -49.5 -46 q-21 -26.5 -32 -58.5 l-94 0 q10 54 40.5 95.5 q30.5 41.5 73 70 q42.5 28.5 94 43 q51.5 14.5 103.5 14.5 q84 0 148.5 -30 q64.5 -30 108 -81 q43.5 -51 65.5 -119.5 q22 -68.5 22 -144.5 q0 -88 -26 -157 q-26 -69 -71 -117 q-45 -48 -106 -73 q-61 -25 -132 -25 ZM366 61 q55 0 99 19.5 q44 19.5 76 53.5 q32 34 50 81 q18 47 21 102 l-478 0 q3 -45 16.5 -90.5 q13.5 -45.5 41.5 -82.5 q28 -37 70.5 -60 q42.5 -23 103.5 -23 Z" /><glyph glyph-name="afii10846" unicode="&#x4d9;" d="M268 -11 q-69 0 -114.5 28.5 q-45.5 28.5 -73 72.5 q-27.5 44 -38 96 q-10.5 52 -8.5 99 l387 0 q1 34 -8 64.5 q-9 30.5 -29 54 q-20 23.5 -51 37.5 q-31 14 -73 14 q-54 0 -88.5 -25 q-34.5 -25 -45.5 -76 l-84 0 q17 88 75 131.5 q58 43.5 146 43.5 q62 0 108.5 -20 q46.5 -20 77.5 -56 q31 -36 46.5 -86 q15.5 -50 15.5 -109 q0 -59 -18 -108 q-18 -49 -50.5 -85 q-32.5 -36 -77 -56 q-44.5 -20 -97.5 -20 ZM273 64 q33 0 59.5 11.5 q26.5 11.5 45.5 31.5 q19 20 30 46.5 q11 26.5 13 56.5 l-297 0 q2 -30 13.5 -57 q11.5 -27 31 -46.5 q19.5 -19.5 46 -31 q26.5 -11.5 58.5 -11.5 Z" /><glyph glyph-name="uni04DC" unicode="&#x4dc;" d="M313 420 l-284 294 l118 0 l312 -333 l0 333 l93 0 l0 -333 l312 333 l118 0 l-284 -294 l316 -420 l-118 0 l-260 354 l-84 -88 l0 -266 l-93 0 l0 266 l-84 88 l-260 -354 l-118 0 l316 420 ZM456 873 l0 -104 l-89 0 l0 104 l89 0 ZM644 873 l0 -104 l-90 0 l0 104 l90 0 Z" /><glyph glyph-name="uni04DD" unicode="&#x4dd;" d="M226 304 l-197 213 l105 0 l215 -240 l0 240 l85 0 l0 -240 l215 240 l105 0 l-197 -213 l226 -304 l-105 0 l-177 250 l-67 -65 l0 -185 l-85 0 l0 185 l-67 65 l-177 -250 l-105 0 l226 304 ZM342 696 l0 -104 l-89 0 l0 104 l89 0 ZM530 696 l0 -104 l-90 0 l0 104 l90 0 Z" /><glyph glyph-name="uni04DE" unicode="&#x4de;" d="M332 -16 q-64 0 -118 15 q-54 15 -93.5 46 q-39.5 31 -61.5 78 q-22 47 -22 112 l91 0 q1 -48 18.5 -81.5 q17.5 -33.5 46 -54 q28.5 -20.5 66.5 -29.5 q38 -9 81 -9 q37 0 69 10.5 q32 10.5 55.5 30 q23.5 19.5 37 47 q13.5 27.5 13.5 61.5 q0 39 -15 63.5 q-15 24.5 -39.5 38 q-24.5 13.5 -57 18.5 q-32.5 5 -68.5 5 q-15 0 -34 -0.5 q-19 -0.5 -30 -1.5 l0 78 q12 -2 32 -2 q20 0 32 0 q34 0 62.5 6.5 q28.5 6.5 49 21.5 q20.5 15 32 39.5 q11.5 24.5 11.5 60.5 q0 33 -12.5 55 q-12.5 22 -34 35.5 q-21.5 13.5 -49 19.5 q-27.5 6 -57.5 6 q-79 0 -124 -34.5 q-45 -34.5 -53 -112.5 l-91 0 q2 57 23.5 99.5 q21.5 42.5 57.5 70 q36 27.5 84.5 41.5 q48.5 14 105.5 14 q51 0 95.5 -11.5 q44.5 -11.5 77.5 -35.5 q33 -24 52 -60.5 q19 -36.5 19 -86.5 q0 -29 -10 -54 q-10 -25 -26.5 -45 q-16.5 -20 -38 -34.5 q-21.5 -14.5 -43.5 -21.5 l0 -3 q35 -7 62 -23.5 q27 -16.5 45 -39.5 q18 -23 27 -51 q9 -28 9 -57 q0 -33 -15 -72 q-15 -39 -48.5 -73 q-33.5 -34 -86 -56.5 q-52.5 -22.5 -127.5 -22.5 ZM277 873 l0 -104 l-89 0 l0 104 l89 0 ZM465 873 l0 -104 l-90 0 l0 104 l90 0 Z" /><glyph glyph-name="uni04DF" unicode="&#x4df;" d="M254 -11 q-103 0 -161 46 q-58 46 -63 131 l86 0 q4 -57 42 -82 q38 -25 95 -25 q61 0 94 26 q33 26 33 66 q0 39 -25 61 q-25 22 -85 22 l-69 0 l0 69 l55 0 q45 0 77 18.5 q32 18.5 32 64.5 q0 29 -27.5 51 q-27.5 22 -81.5 22 q-23 0 -45.5 -5 q-22.5 -5 -40.5 -16 q-18 -11 -30 -29 q-12 -18 -15 -44 l-86 0 q3 48 23 79.5 q20 31.5 50 50 q30 18.5 68 26.5 q38 8 77 8 q40 0 75 -8 q35 -8 61.5 -25.5 q26.5 -17.5 42 -43.5 q15.5 -26 15.5 -62 q0 -45 -25.5 -73 q-25.5 -28 -57.5 -35 l0 -2 q18 -3 36 -12 q18 -9 32 -24.5 q14 -15.5 23 -38 q9 -22.5 9 -52.5 q0 -42 -18 -73 q-18 -31 -48 -51 q-30 -20 -68.5 -30 q-38.5 -10 -79.5 -10 ZM203 696 l0 -104 l-89 0 l0 104 l89 0 ZM391 696 l0 -104 l-90 0 l0 104 l90 0 Z" /><glyph glyph-name="uni04E2" unicode="&#x4e2;" d="M78 714 l95 0 l0 -605 l359 605 l120 0 l0 -714 l-95 0 l0 607 l-360 -607 l-119 0 l0 714 ZM535 852 l0 -55 l-340 0 l0 55 l340 0 Z" /><glyph glyph-name="uni04E3" unicode="&#x4e3;" d="M64 517 l85 0 l0 -422 l244 422 l109 0 l0 -517 l-85 0 l0 422 l-244 -422 l-109 0 l0 517 ZM453 675 l0 -55 l-340 0 l0 55 l340 0 Z" /><glyph glyph-name="uni04E4" unicode="&#x4e4;" d="M78 714 l95 0 l0 -605 l359 605 l120 0 l0 -714 l-95 0 l0 607 l-360 -607 l-119 0 l0 714 ZM315 873 l0 -104 l-89 0 l0 104 l89 0 ZM503 873 l0 -104 l-90 0 l0 104 l90 0 Z" /><glyph glyph-name="uni04E5" unicode="&#x4e5;" d="M64 517 l85 0 l0 -422 l244 422 l109 0 l0 -517 l-85 0 l0 422 l-244 -422 l-109 0 l0 517 ZM233 696 l0 -104 l-89 0 l0 104 l89 0 ZM421 696 l0 -104 l-90 0 l0 104 l90 0 Z" /><glyph glyph-name="uni04E6" unicode="&#x4e6;" d="M380 -16 q-85 0 -149 30.5 q-64 30.5 -107 82.5 q-43 52 -64.5 119 q-21.5 67 -21.5 141 q0 73 21.5 140.5 q21.5 67.5 64.5 119.5 q43 52 107 83 q64 31 149 31 q85 0 149 -31 q64 -31 107 -83 q43 -52 64.5 -119.5 q21.5 -67.5 21.5 -140.5 q0 -74 -21.5 -141 q-21.5 -67 -64.5 -119 q-43 -52 -107 -82.5 q-64 -30.5 -149 -30.5 ZM380 63 q65 0 112 25.5 q47 25.5 77 67.5 q30 42 44 94.5 q14 52.5 14 106.5 q0 54 -14 106.5 q-14 52.5 -44 94.5 q-30 42 -77 67.5 q-47 25.5 -112 25.5 q-65 0 -112 -25.5 q-47 -25.5 -77 -67.5 q-30 -42 -44 -94.5 q-14 -52.5 -14 -106.5 q0 -54 14 -106.5 q14 -52.5 44 -94.5 q30 -42 77 -67.5 q47 -25.5 112 -25.5 ZM330 873 l0 -104 l-89 0 l0 104 l89 0 ZM518 873 l0 -104 l-90 0 l0 104 l90 0 Z" /><glyph glyph-name="uni04E7" unicode="&#x4e7;" d="M287 -11 q-62 0 -108.5 20.5 q-46.5 20.5 -78.5 57 q-32 36.5 -48 85.5 q-16 49 -16 106 q0 57 16 106.5 q16 49.5 48 86 q32 36.5 78.5 57.5 q46.5 21 108.5 21 q61 0 108 -21 q47 -21 79 -57.5 q32 -36.5 48 -86 q16 -49.5 16 -106.5 q0 -57 -16 -106 q-16 -49 -48 -85.5 q-32 -36.5 -79 -57 q-47 -20.5 -108 -20.5 ZM287 63 q33 0 62.5 13 q29.5 13 51.5 37.5 q22 24.5 34.5 61 q12.5 36.5 12.5 83.5 q0 47 -12.5 83.5 q-12.5 36.5 -34.5 61.5 q-22 25 -51.5 38 q-29.5 13 -62.5 13 q-33 0 -62.5 -13 q-29.5 -13 -51.5 -38 q-22 -25 -34.5 -61.5 q-12.5 -36.5 -12.5 -83.5 q0 -47 12.5 -83.5 q12.5 -36.5 34.5 -61 q22 -24.5 51.5 -37.5 q29.5 -13 62.5 -13 ZM237 696 l0 -104 l-89 0 l0 104 l89 0 ZM425 696 l0 -104 l-90 0 l0 104 l90 0 Z" /><glyph glyph-name="uni04E8" unicode="&#x4e8;" d="M380 -16 q-85 0 -149 30.5 q-64 30.5 -107 82.5 q-43 52 -64.5 119 q-21.5 67 -21.5 141 q0 73 21.5 140.5 q21.5 67.5 64.5 119.5 q43 52 107 83 q64 31 149 31 q85 0 149 -31 q64 -31 107 -83 q43 -52 64.5 -119.5 q21.5 -67.5 21.5 -140.5 q0 -74 -21.5 -141 q-21.5 -67 -64.5 -119 q-43 -52 -107 -82.5 q-64 -30.5 -149 -30.5 ZM380 63 q61 0 105.5 22.5 q44.5 22.5 74.5 59.5 q30 37 46 84.5 q16 47.5 20 97.5 l-492 0 q3 -50 19.5 -97.5 q16.5 -47.5 46.5 -84.5 q30 -37 74.5 -59.5 q44.5 -22.5 105.5 -22.5 ZM624 407 q-6 47 -23 91 q-17 44 -47 78 q-30 34 -73 54.5 q-43 20.5 -101 20.5 q-58 0 -101 -20.5 q-43 -20.5 -73 -54.5 q-30 -34 -47 -78 q-17 -44 -23 -91 l488 0 Z" /><glyph glyph-name="uni04E9" unicode="&#x4e9;" d="M287 -11 q-62 0 -108.5 20.5 q-46.5 20.5 -78.5 57 q-32 36.5 -48 85.5 q-16 49 -16 106 q0 57 16 106.5 q16 49.5 48 86 q32 36.5 78.5 57.5 q46.5 21 108.5 21 q61 0 108 -21 q47 -21 79 -57.5 q32 -36.5 48 -86 q16 -49.5 16 -106.5 q0 -57 -16 -106 q-16 -49 -48 -85.5 q-32 -36.5 -79 -57 q-47 -20.5 -108 -20.5 ZM287 63 q63 0 108 44 q45 44 52 126 l-320 0 q7 -82 52 -126 q45 -44 108 -44 ZM444 306 q-12 72 -55.5 110 q-43.5 38 -101.5 38 q-58 0 -101.5 -38 q-43.5 -38 -55.5 -110 l314 0 Z" /><glyph glyph-name="uni04EE" unicode="&#x4ee;" d="M149 -11 q-24 0 -47.5 3.5 q-23.5 3.5 -40.5 8.5 l0 78 q13 -4 32.5 -7 q19.5 -3 37.5 -3 q23 0 40.5 8.5 q17.5 8.5 31.5 22.5 q14 14 24.5 32 q10.5 18 19.5 37 l12 25 l-258 520 l103 0 l206 -428 l201 428 l101 0 l-274 -561 q-45 -92 -91 -128 q-46 -36 -98 -36 ZM475 852 l0 -55 l-340 0 l0 55 l340 0 Z" /><glyph glyph-name="uni04EF" unicode="&#x4ef;" d="M117 -206 q-15 0 -30 2 q-15 2 -29 7 l0 78 q12 -4 24.5 -8 q12.5 -4 25.5 -4 q26 0 42 12 q16 12 28 35 l35 87 l-205 514 l96 0 l151 -423 l2 0 l145 423 l90 0 l-225 -585 q-15 -38 -29.5 -64 q-14.5 -26 -32 -42.5 q-17.5 -16.5 -39 -24 q-21.5 -7.5 -49.5 -7.5 ZM420 675 l0 -55 l-340 0 l0 55 l340 0 Z" /><glyph glyph-name="uni04F0" unicode="&#x4f0;" d="M149 -11 q-24 0 -47.5 3.5 q-23.5 3.5 -40.5 8.5 l0 78 q13 -4 32.5 -7 q19.5 -3 37.5 -3 q23 0 40.5 8.5 q17.5 8.5 31.5 22.5 q14 14 24.5 32 q10.5 18 19.5 37 l12 25 l-258 520 l103 0 l206 -428 l201 428 l101 0 l-274 -561 q-45 -92 -91 -128 q-46 -36 -98 -36 ZM256 873 l0 -104 l-89 0 l0 104 l89 0 ZM444 873 l0 -104 l-90 0 l0 104 l90 0 Z" /><glyph glyph-name="uni04F1" unicode="&#x4f1;" d="M117 -206 q-15 0 -30 2 q-15 2 -29 7 l0 78 q12 -4 24.5 -8 q12.5 -4 25.5 -4 q26 0 42 12 q16 12 28 35 l35 87 l-205 514 l96 0 l151 -423 l2 0 l145 423 l90 0 l-225 -585 q-15 -38 -29.5 -64 q-14.5 -26 -32 -42.5 q-17.5 -16.5 -39 -24 q-21.5 -7.5 -49.5 -7.5 ZM200 696 l0 -104 l-89 0 l0 104 l89 0 ZM388 696 l0 -104 l-90 0 l0 104 l90 0 Z" /><glyph glyph-name="uni04F2" unicode="&#x4f2;" d="M149 -11 q-24 0 -47.5 3.5 q-23.5 3.5 -40.5 8.5 l0 78 q13 -4 32.5 -7 q19.5 -3 37.5 -3 q23 0 40.5 8.5 q17.5 8.5 31.5 22.5 q14 14 24.5 32 q10.5 18 19.5 37 l12 25 l-258 520 l103 0 l206 -428 l201 428 l101 0 l-274 -561 q-45 -92 -91 -128 q-46 -36 -98 -36 ZM524 908 l-120 -143 l-66 0 l81 143 l105 0 ZM368 908 l-120 -143 l-65 0 l80 143 l105 0 Z" /><glyph glyph-name="uni04F3" unicode="&#x4f3;" d="M117 -206 q-15 0 -30 2 q-15 2 -29 7 l0 78 q12 -4 24.5 -8 q12.5 -4 25.5 -4 q26 0 42 12 q16 12 28 35 l35 87 l-205 514 l96 0 l151 -423 l2 0 l145 423 l90 0 l-225 -585 q-15 -38 -29.5 -64 q-14.5 -26 -32 -42.5 q-17.5 -16.5 -39 -24 q-21.5 -7.5 -49.5 -7.5 ZM467 731 l-120 -143 l-66 0 l81 143 l105 0 ZM311 731 l-120 -143 l-65 0 l80 143 l105 0 Z" /><glyph glyph-name="uni04F4" unicode="&#x4f4;" d="M485 306 q-13 -3 -36 -8 q-23 -5 -50.5 -9.5 q-27.5 -4.5 -57 -8 q-29.5 -3.5 -54.5 -3.5 q-82 0 -129.5 21.5 q-47.5 21.5 -72 53.5 q-24.5 32 -31.5 70.5 q-7 38.5 -7 71.5 l0 220 l94 0 l0 -212 q0 -24 2.5 -49.5 q2.5 -25.5 16.5 -46.5 q14 -21 43.5 -34.5 q29.5 -13.5 83.5 -13.5 q67 0 119 10 q52 10 79 18 l0 328 l95 0 l0 -714 l-95 0 l0 306 ZM279 873 l0 -104 l-89 0 l0 104 l89 0 ZM467 873 l0 -104 l-90 0 l0 104 l90 0 Z" /><glyph glyph-name="uni04F5" unicode="&#x4f5;" d="M374 217 q-7 -3 -24.5 -7 q-17.5 -4 -40 -8 q-22.5 -4 -47.5 -7 q-25 -3 -48 -3 q-78 0 -123 36.5 q-45 36.5 -45 111.5 l0 177 l85 0 l0 -163 q0 -51 25.5 -70.5 q25.5 -19.5 73.5 -19.5 q19 0 41 2.5 q22 2.5 42.5 6.5 q20.5 4 36.5 8 q16 4 24 6 l0 230 l85 0 l0 -517 l-85 0 l0 217 ZM212 696 l0 -104 l-89 0 l0 104 l89 0 ZM400 696 l0 -104 l-90 0 l0 104 l90 0 Z" /><glyph glyph-name="uni04F8" unicode="&#x4f8;" d="M78 714 l95 0 l0 -291 l213 0 q106 0 162.5 -54.5 q56.5 -54.5 56.5 -157.5 q0 -102 -56.5 -156.5 q-56.5 -54.5 -162.5 -54.5 l-308 0 l0 714 ZM354 80 q156 0 156 131 q0 133 -156 133 l-181 0 l0 -264 l181 0 ZM699 714 l95 0 l0 -714 l-95 0 l0 714 ZM389 873 l0 -104 l-89 0 l0 104 l89 0 ZM577 873 l0 -104 l-90 0 l0 104 l90 0 Z" /><glyph glyph-name="uni04F9" unicode="&#x4f9;" d="M64 517 l85 0 l0 -198 l160 0 q76 0 122 -41.5 q46 -41.5 46 -116.5 q0 -73 -44 -117 q-44 -44 -120 -44 l-249 0 l0 517 ZM282 75 q107 0 107 86 q0 85 -107 85 l-133 0 l0 -171 l133 0 ZM559 517 l85 0 l0 -517 l-85 0 l0 517 ZM304 696 l0 -104 l-89 0 l0 104 l89 0 ZM492 696 l0 -104 l-90 0 l0 104 l90 0 Z" /><glyph glyph-name="endash" unicode="&#x2013;" d="M0 318 l0 -80 l500 0 l0 80 l-500 0 Z" /><glyph glyph-name="emdash" unicode="&#x2014;" d="M130 318 l0 -80 l740 0 l0 80 l-740 0 Z" /><glyph glyph-name="quoteleft" unicode="&#x2018;" d="M195 456 l0 111 l-59 0 q0 17 2.5 34.5 q2.5 17.5 9.5 31.5 q7 14 18 22.5 q11 8.5 28 8.5 l0 50 q-28 0 -49 -12 q-21 -12 -34.5 -32 q-13.5 -20 -20 -46.5 q-6.5 -26.5 -6.5 -56.5 l0 -111 l111 0 Z" /><glyph glyph-name="quoteright" unicode="&#x2019;" d="M83 714 l0 -111 l59 0 q0 -17 -2.5 -34.5 q-2.5 -17.5 -9.5 -31.5 q-7 -14 -18 -22.5 q-11 -8.5 -28 -8.5 l0 -50 q29 0 49.5 12 q20.5 12 34 32 q13.5 20 20 46.5 q6.5 26.5 6.5 56.5 l0 111 l-111 0 Z" /><glyph glyph-name="quotesinglbase" unicode="&#x201a;" d="M83 111 l0 -111 l59 0 q0 -17 -2.5 -34 q-2.5 -17 -9.5 -31 q-7 -14 -18 -22.5 q-11 -8.5 -28 -8.5 l0 -50 q29 0 49.5 12 q20.5 12 34 32 q13.5 20 20 46.5 q6.5 26.5 6.5 55.5 l0 111 l-111 0 Z" /><glyph glyph-name="quotedblleft" unicode="&#x201c;" d="M177 456 l0 111 l-59 0 q0 17 2.5 34.5 q2.5 17.5 9.5 31.5 q7 14 18 22.5 q11 8.5 28 8.5 l0 50 q-28 0 -49 -12 q-21 -12 -34.5 -32 q-13.5 -20 -20 -46.5 q-6.5 -26.5 -6.5 -56.5 l0 -111 l111 0 ZM360 456 l0 111 l-59 0 q0 17 2.5 34.5 q2.5 17.5 9.5 31.5 q7 14 18 22.5 q11 8.5 28 8.5 l0 50 q-28 0 -49 -12 q-21 -12 -34.5 -32 q-13.5 -20 -20 -46.5 q-6.5 -26.5 -6.5 -56.5 l0 -111 l111 0 Z" /><glyph glyph-name="quotedblright" unicode="&#x201d;" d="M66 714 l0 -111 l59 0 q0 -17 -2.5 -34.5 q-2.5 -17.5 -9.5 -31.5 q-7 -14 -18 -22.5 q-11 -8.5 -28 -8.5 l0 -50 q29 0 49.5 12 q20.5 12 34 32 q13.5 20 20 46.5 q6.5 26.5 6.5 56.5 l0 111 l-111 0 ZM249 714 l0 -111 l59 0 q0 -17 -2.5 -34.5 q-2.5 -17.5 -9.5 -31.5 q-7 -14 -18 -22.5 q-11 -8.5 -28 -8.5 l0 -50 q29 0 49.5 12 q20.5 12 34 32 q13.5 20 20 46.5 q6.5 26.5 6.5 56.5 l0 111 l-111 0 Z" /><glyph glyph-name="quotedblbase" unicode="&#x201e;" d="M249 111 l0 -111 l59 0 q0 -17 -2.5 -34 q-2.5 -17 -9.5 -31 q-7 -14 -18 -22.5 q-11 -8.5 -28 -8.5 l0 -50 q29 0 49.5 12 q20.5 12 34 32 q13.5 20 20 46.5 q6.5 26.5 6.5 55.5 l0 111 l-111 0 ZM66 111 l0 -111 l59 0 q0 -17 -2.5 -34 q-2.5 -17 -9.5 -31 q-7 -14 -18 -22.5 q-11 -8.5 -28 -8.5 l0 -50 q29 0 49.5 12 q20.5 12 34 32 q13.5 20 20 46.5 q6.5 26.5 6.5 55.5 l0 111 l-111 0 Z" /><glyph glyph-name="dagger" unicode="&#x2020;" d="M236 442 l0 -596 l80 0 l0 596 l198 0 l0 75 l-198 0 l0 197 l-80 0 l0 -197 l-194 0 l0 -75 l194 0 Z" /><glyph glyph-name="daggerdbl" unicode="&#x2021;" d="M236 42 l0 -196 l80 0 l0 196 l198 0 l0 75 l-198 0 l0 325 l198 0 l0 75 l-198 0 l0 197 l-80 0 l0 -197 l-194 0 l0 -75 l194 0 l0 -325 l-194 0 l0 -75 l194 0 Z" /><glyph glyph-name="bullet" unicode="&#x2022;" d="M72 357 q0 -37 14 -69.5 q14 -32.5 38 -57 q24 -24.5 56.5 -38.5 q32.5 -14 69.5 -14 q37 0 69.5 14 q32.5 14 57 38.5 q24.5 24.5 38.5 57 q14 32.5 14 69.5 q0 37 -14 69.5 q-14 32.5 -38.5 56.5 q-24.5 24 -57 38 q-32.5 14 -69.5 14 q-37 0 -69.5 -14 q-32.5 -14 -56.5 -38 q-24 -24 -38 -56.5 q-14 -32.5 -14 -69.5 Z" /><glyph glyph-name="ellipsis" unicode="&#x2026;" d="M777 111 l0 -111 l111 0 l0 111 l-111 0 ZM444 111 l0 -111 l111 0 l0 111 l-111 0 ZM111 111 l0 -111 l111 0 l0 111 l-111 0 Z" /><glyph glyph-name="perthousand" unicode="&#x2030;" d="M857 158 q0 19 3.5 39.5 q3.5 20.5 12 37.5 q8.5 17 23.5 28 q15 11 37 11 q21 0 34.5 -12 q13.5 -12 21 -30 q7.5 -18 10 -38 q2.5 -20 2.5 -37 q0 -18 -3 -38.5 q-3 -20.5 -11 -37 q-8 -16.5 -22 -27.5 q-14 -11 -36 -11 q-23 0 -37.5 10.5 q-14.5 10.5 -22 27.5 q-7.5 17 -10 37.5 q-2.5 20.5 -2.5 39.5 ZM782 155 q0 -36 8 -66.5 q8 -30.5 26 -52.5 q18 -22 45.5 -34.5 q27.5 -12.5 66.5 -12.5 q31 0 59.5 9.5 q28.5 9.5 48.5 34.5 q22 27 31 60 q9 33 9 67 q0 36 -8 67 q-8 31 -25.5 53.5 q-17.5 22.5 -45 35.5 q-27.5 13 -67.5 13 q-40 0 -68.5 -13.5 q-28.5 -13.5 -46 -37 q-17.5 -23.5 -25.5 -55.5 q-8 -32 -8 -68 ZM512 158 q0 19 3.5 39.5 q3.5 20.5 12 37.5 q8.5 17 23.5 28 q15 11 37 11 q21 0 34.5 -12 q13.5 -12 21 -30 q7.5 -18 10 -38 q2.5 -20 2.5 -37 q0 -18 -3 -38.5 q-3 -20.5 -11 -37 q-8 -16.5 -22 -27.5 q-14 -11 -36 -11 q-23 0 -37.5 10.5 q-14.5 10.5 -22 27.5 q-7.5 17 -10 37.5 q-2.5 20.5 -2.5 39.5 ZM437 155 q0 -36 8 -66.5 q8 -30.5 26 -52.5 q18 -22 45.5 -34.5 q27.5 -12.5 66.5 -12.5 q31 0 59.5 9.5 q28.5 9.5 48.5 34.5 q22 27 31 60 q9 33 9 67 q0 36 -8 67 q-8 31 -25.5 53.5 q-17.5 22.5 -45 35.5 q-27.5 13 -67.5 13 q-40 0 -68.5 -13.5 q-28.5 -13.5 -46 -37 q-17.5 -23.5 -25.5 -55.5 q-8 -32 -8 -68 ZM628 722 l-538 -743 l86 0 l537 743 l-85 0 ZM147 538 q0 19 3.5 39.5 q3.5 20.5 12 37.5 q8.5 17 23.5 28 q15 11 37 11 q21 0 34.5 -12 q13.5 -12 21 -30 q7.5 -18 10 -38 q2.5 -20 2.5 -37 q0 -18 -3 -38.5 q-3 -20.5 -11 -37 q-8 -16.5 -22 -27.5 q-14 -11 -36 -11 q-23 0 -37.5 10.5 q-14.5 10.5 -22 27.5 q-7.5 17 -10 37.5 q-2.5 20.5 -2.5 39.5 ZM72 535 q0 -36 8 -66.5 q8 -30.5 26 -53 q18 -22.5 45.5 -35 q27.5 -12.5 66.5 -12.5 q31 0 59.5 10 q28.5 10 48.5 35 q22 27 31 60 q9 33 9 67 q0 36 -8 67 q-8 31 -25.5 53.5 q-17.5 22.5 -45 35.5 q-27.5 13 -67.5 13 q-40 0 -68.5 -13.5 q-28.5 -13.5 -46 -37 q-17.5 -23.5 -25.5 -55.5 q-8 -32 -8 -68 Z" /><glyph glyph-name="guilsinglleft" unicode="&#x2039;" d="M50 234 l152 -120 l0 86 l-100 78 l100 78 l0 86 l-152 -120 l0 -88 Z" /><glyph glyph-name="guilsinglright" unicode="&#x203a;" d="M209 322 l-152 120 l0 -86 l100 -78 l-100 -78 l0 -86 l152 120 l0 88 Z" /><glyph glyph-name="fraction" unicode="&#x2044;" d="M269 725 l-434 -752 l64 0 l434 752 l-64 0 Z" /><glyph glyph-name="Euro" unicode="&#x20ac;" d="M558 662 q-90 63 -181 63 q-118 0 -193 -81 q-67 -71 -91 -194 l-54 0 l-26 -61 l73 0 q-1 -7 -1 -15 q0 -8 0 -17 q0 -5 0 -10 q0 -5 1 -10 l-46 0 l-27 -61 l77 0 q42 -291 287 -291 q87 0 154 43 l0 105 q-42 -39 -69 -53 q-37 -19 -85 -19 q-157 0 -190 215 l218 0 l26 61 l-249 0 q-1 5 -1 10 q0 5 0 11 q0 7 0 15 q0 8 1 16 l263 0 l27 61 l-283 0 q17 83 56 134 q49 64 124 64 q73 0 143 -69 l46 83 Z" /><glyph glyph-name="afii61352" unicode="&#x2116;" d="M82 697 l96 0 l341 -562 l0 562 l85 0 l0 -697 l-99 0 l-338 556 l0 -556 l-85 0 l0 697 ZM693 213 l280 0 l0 -63 l-280 0 l0 63 ZM830 272 q-70 0 -109.5 38.5 q-39.5 38.5 -39.5 104.5 q0 66 39 106 q39 40 105 40 q72 0 111 -39 q39 -39 39 -108 q0 -67 -38 -104.5 q-38 -37.5 -107 -37.5 ZM829 327 q35 0 54 21 q19 21 19 69 q0 46 -20 67.5 q-20 21.5 -52 21.5 q-35 0 -55.5 -22 q-20.5 -22 -20.5 -68 q0 -46 20 -67.5 q20 -21.5 55 -21.5 Z" /><glyph glyph-name="trademark" unicode="&#x2122;" d="M927 302 l0 412 l-104 0 l-121 -313 l-123 313 l-105 0 l0 -412 l68 0 l0 344 l2 0 l135 -344 l43 0 l135 344 l2 0 l0 -344 l68 0 ZM390 659 l0 55 l-326 0 l0 -55 l129 0 l0 -357 l68 0 l0 357 l129 0 Z" /><glyph glyph-name="Omega" unicode="&#x2126;" d="M50 80 l195 0 l0 60 q-47 13 -83.5 39.5 q-36.5 26.5 -61 63 q-24.5 36.5 -37.5 80.5 q-13 44 -13 91 q0 67 25.5 123.5 q25.5 56.5 69 97 q43.5 40.5 101.5 63.5 q58 23 124 23 q65 0 123.5 -22.5 q58.5 -22.5 102 -63 q43.5 -40.5 69 -96.5 q25.5 -56 25.5 -123 q0 -48 -13 -92 q-13 -44 -37.5 -80.5 q-24.5 -36.5 -61 -63.5 q-36.5 -27 -83.5 -40 l0 -60 l195 0 l0 -80 l-254 0 l0 206 q80 17 120 71 q40 54 40 136 q0 49 -16 90.5 q-16 41.5 -45 72 q-29 30.5 -71.5 48 q-42.5 17.5 -94.5 17.5 q-52 0 -93.5 -17.5 q-41.5 -17.5 -71 -48 q-29.5 -30.5 -45 -72.5 q-15.5 -42 -15.5 -90 q0 -79 39.5 -135.5 q39.5 -56.5 120.5 -71.5 l0 -206 l-254 0 l0 80 Z" /><glyph glyph-name="partialdiff" unicode="&#x2202;" d="M245 -12 q-48 0 -87 18 q-39 18 -66 49 q-27 31 -42 72 q-15 41 -15 87 q0 45 14.5 84.5 q14.5 39.5 41 69 q26.5 29.5 64.5 46 q38 16.5 85 16.5 q45 0 84.5 -18.5 q39.5 -18.5 70.5 -50.5 l1 37 q1 39 -7 83 q-8 44 -27.5 81.5 q-19.5 37.5 -52 62.5 q-32.5 25 -80.5 25 q-34 0 -61.5 -13.5 q-27.5 -13.5 -53.5 -33.5 l-48 56 q37 29 74.5 45.5 q37.5 16.5 85.5 16.5 q75 0 124.5 -33 q49.5 -33 79.5 -85 q30 -52 42 -116 q12 -64 12 -126 q0 -60 -9 -125.5 q-9 -65.5 -35 -120.5 q-26 -55 -72.5 -91 q-46.5 -36 -122.5 -36 ZM247 56 q42 0 69.5 23 q27.5 23 44.5 57.5 q17 34.5 24 74 q7 39.5 7 72.5 q-27 33 -61.5 55.5 q-34.5 22.5 -79.5 22.5 q-32 0 -56.5 -12.5 q-24.5 -12.5 -41 -33.5 q-16.5 -21 -24.5 -48 q-8 -27 -8 -57 q0 -29 7.5 -56.5 q7.5 -27.5 23.5 -49 q16 -21.5 39.5 -35 q23.5 -13.5 55.5 -13.5 Z" /><glyph glyph-name="Delta" unicode="&#x2206;" d="M271 714 l105 0 l279 -714 l-662 0 l278 714 ZM519 80 l-196 548 l-2 0 l-201 -548 l399 0 Z" /><glyph glyph-name="product" unicode="&#x220f;" d="M78 786 l594 0 l0 -1000 l-95 0 l0 920 l-404 0 l0 -920 l-95 0 l0 1000 Z" /><glyph glyph-name="summation" unicode="&#x2211;" d="M0 -142 l316 433 l-302 423 l0 72 l550 0 l0 -80 l-432 0 l292 -414 l-311 -426 l463 0 l0 -80 l-576 0 l0 72 Z" /><glyph glyph-name="minus" unicode="&#x2212;" d="M48 287 l0 -68 l504 0 l0 68 l-504 0 Z" /><glyph glyph-name="radical" unicode="&#x221a;" d="M81 114 l-49 -23 l-32 70 l124 58 l144 -302 l178 869 l90 0 l-211 -1000 l-86 0 l-158 328 Z" /><glyph glyph-name="infinity" unicode="&#x221e;" d="M181 92 q-36 0 -64.5 12.5 q-28.5 12.5 -48.5 34 q-20 21.5 -31 51.5 q-11 30 -11 65 q0 34 10.5 64 q10.5 30 30 52.5 q19.5 22.5 47.5 35.5 q28 13 64 13 q31 0 58 -10.5 q27 -10.5 51 -27 q24 -16.5 45 -37 q21 -20.5 41 -41.5 q19 21 39.5 41.5 q20.5 20.5 44 37 q23.5 16.5 50 27 q26.5 10.5 56.5 10.5 q35 0 63.5 -12.5 q28.5 -12.5 49 -34.5 q20.5 -22 31.5 -52 q11 -30 11 -64 q0 -35 -10.5 -65 q-10.5 -30 -30.5 -52 q-20 -22 -48.5 -35 q-28.5 -13 -64.5 -13 q-30 0 -56.5 9.5 q-26.5 9.5 -49.5 25 q-23 15.5 -44.5 35 q-21.5 19.5 -40.5 40.5 q-20 -20 -40.5 -39.5 q-20.5 -19.5 -44 -35.5 q-23.5 -16 -50 -25.5 q-26.5 -9.5 -57.5 -9.5 ZM181 169 q20 0 40 8 q20 8 38.5 21 q18.5 13 35 27.5 q16.5 14.5 29.5 28.5 q-14 13 -31 29 q-17 16 -36 29 q-19 13 -39 22 q-20 9 -40 9 q-37 0 -58 -27 q-21 -27 -21 -61 q0 -38 22 -62 q22 -24 60 -24 ZM566 169 q38 0 58.5 24.5 q20.5 24.5 20.5 60.5 q0 38 -21 63.5 q-21 25.5 -61 25.5 q-20 0 -40 -9 q-20 -9 -38.5 -22.5 q-18.5 -13.5 -35 -29.5 q-16.5 -16 -29.5 -29 q15 -14 31.5 -29 q16.5 -15 34.5 -27 q18 -12 38 -20 q20 -8 42 -8 Z" /><glyph glyph-name="integral" unicode="&#x222b;" d="M80 -213 q-12 0 -26 3.5 q-14 3.5 -26 10.5 q-12 7 -20 18 q-8 11 -8 26 q0 17 11 29.5 q11 12.5 29 12.5 q15 0 23.5 -8 q8.5 -8 14.5 -18 q6 -10 10 -18 q4 -8 10 -8 q11 0 16 12 q5 12 6.5 28 q1.5 16 1 30.5 q-0.5 14.5 -0.5 20.5 q0 148 0 252 q0 104 0 173.5 q0 69.5 -0.5 110 q-0.5 40.5 -0.5 62.5 q0 22 0 31 q0 9 0 16 q0 37 4 75.5 q4 38.5 17.5 69.5 q13.5 31 40.5 50.5 q27 19.5 72 19.5 q14 0 29.5 -3.5 q15.5 -3.5 29 -11 q13.5 -7.5 22 -19 q8.5 -11.5 8.5 -28.5 q0 -18 -13.5 -30.5 q-13.5 -12.5 -31.5 -12.5 q-15 0 -24.5 8 q-9.5 8 -15.5 17 q-6 9 -10.5 17 q-4.5 8 -10.5 8 q-10 0 -15 -13 q-5 -13 -7.5 -29.5 q-2.5 -16.5 -2.5 -32.5 q0 -16 0 -23 l0 -640 q0 -33 -4.5 -69.5 q-4.5 -36.5 -18.5 -66.5 q-14 -30 -40 -50 q-26 -20 -69 -20 Z" /><glyph glyph-name="approxequal" unicode="&#x2248;" d="M36 85 q4 27 12.5 53.5 q8.5 26.5 24 47.5 q15.5 21 38 34 q22.5 13 54.5 13 q33 0 68.5 -11 q35.5 -11 71.5 -24.5 q36 -13.5 70 -24.5 q34 -11 64 -11 q34 0 51.5 22 q17.5 22 23.5 52 l50 0 q-3 -28 -11.5 -54 q-8.5 -26 -24 -46.5 q-15.5 -20.5 -38.5 -32.5 q-23 -12 -55 -12 q-32 0 -69 11 q-37 11 -74 24.5 q-37 13.5 -70.5 25 q-33.5 11.5 -58.5 11.5 q-32 0 -51.5 -24.5 q-19.5 -24.5 -23.5 -53.5 l-52 0 l0 0 ZM36 265 q4 27 12.5 53.5 q8.5 26.5 24 47.5 q15.5 21 38 34 q22.5 13 54.5 13 q33 0 68.5 -11 q35.5 -11 71.5 -24.5 q36 -13.5 70 -24.5 q34 -11 64 -11 q34 0 51.5 22 q17.5 22 23.5 52 l50 0 q-3 -28 -11.5 -54 q-8.5 -26 -24 -46.5 q-15.5 -20.5 -38.5 -32.5 q-23 -12 -55 -12 q-32 0 -69 11 q-37 11 -74 24.5 q-37 13.5 -70.5 25 q-33.5 11.5 -58.5 11.5 q-32 0 -51.5 -24.5 q-19.5 -24.5 -23.5 -53.5 l-52 0 l0 0 Z" /><glyph glyph-name="notequal" unicode="&#x2260;" d="M128 8 l58 110 l-138 0 l0 68 l174 0 l70 134 l-244 0 l0 68 l280 0 l75 142 l57 -29 l-60 -113 l152 0 l0 -68 l-187 0 l-70 -134 l257 0 l0 -68 l-293 0 l-73 -140 l-58 30 Z" /><glyph glyph-name="lessequal" unicode="&#x2264;" d="M48 45 l504 0 l0 -68 l-504 0 l0 68 ZM48 270 l0 69 l504 188 l0 -74 l-406 -149 l406 -146 l0 -75 l-504 187 Z" /><glyph glyph-name="greaterequal" unicode="&#x2265;" d="M48 -23 l0 68 l504 0 l0 -68 l-504 0 ZM48 83 l0 75 l406 146 l-406 149 l0 74 l504 -188 l0 -69 l-504 -187 Z" /><glyph glyph-name="lozenge" unicode="&#x25ca;" d="M86 349 l173 384 l81 0 l174 -384 l-174 -384 l-81 0 l-173 384 ZM427 349 l-128 298 l-126 -298 l126 -299 l128 299 Z" /><glyph glyph-name="apple" unicode="&#xf8ff;" d="M408 588 q-16 0 -69 15 q-52 15 -89 15 q-86 0 -143 -72 q-56 -73 -56 -187 q0 -124 74 -252 q74 -129 150 -129 q24 0 66 17 q39 16 72 16 q32 0 75 -15 q44 -16 71 -16 q65 0 129 97 q21 32 36 63.5 q15 31.5 25 61.5 q-45 14 -79 63 q-35 50 -35 112 q0 57 33 103 q18 26 57 60 q-13 16 -26 28 q-13 12 -26 22 q-47 32 -107 32 q-36 0 -87 -17 q-51 -17 -71 -17 ZM561 790 q0 4 -0.5 9 q-0.5 5 -2.5 12 q-88 -20 -125.5 -74.5 q-37.5 -54.5 -38.5 -128.5 q32 3 51 8 q26 9 55 36 q31 32 46 69 q15 37 15 69 Z" /><glyph glyph-name="fi" unicode="&#xfb01;" d="M365 0 l85 0 l0 517 l-85 0 l0 -517 ZM365 610 l85 0 l0 104 l-85 0 l0 -104 ZM99 442 l0 -442 l85 0 l0 442 l100 0 l0 75 l-100 0 l0 72 q0 34 17 46 q17 12 48 12 q11 0 24 -1.5 q13 -1.5 24 -5.5 l0 74 q-12 4 -27.5 6 q-15.5 2 -27.5 2 q-70 0 -106.5 -32.5 q-36.5 -32.5 -36.5 -95.5 l0 -77 l-87 0 l0 -75 l87 0 Z" /><glyph glyph-name="fl" unicode="&#xfb02;" d="M365 714 l0 -714 l85 0 l0 714 l-85 0 ZM99 442 l0 -442 l85 0 l0 442 l100 0 l0 75 l-100 0 l0 72 q0 34 17 46 q17 12 48 12 q11 0 24 -1.5 q13 -1.5 24 -5.5 l0 74 q-12 4 -27.5 6 q-15.5 2 -27.5 2 q-70 0 -106.5 -32.5 q-36.5 -32.5 -36.5 -95.5 l0 -77 l-87 0 l0 -75 l87 0 Z" /></font>
</defs>
</svg>
