<?xml version="1.0" standalone="no"?><!DOCTYPE svg PUBLIC "-//W3C//DTD SVG 1.1//EN" "http://www.w3.org/Graphics/SVG/1.1/DTD/svg11.dtd" ><svg xmlns="http://www.w3.org/2000/svg"><metadata></metadata><defs><font id="DIN-MediumAlternate:1166835789" horiz-adv-x="1196"><font-face font-family="DIN Alternate" font-weight="500" font-stretch="normal" units-per-em="1000" panose-1="0 0 0 0 0 0 0 0 0 0" ascent="1000" descent="-211" x-height="0" bbox="-110 -211 1138 1000" underline-thickness="70" underline-position="-137" unicode-range="U+0020-fb02" /><missing-glyph horiz-adv-x="1000"  /><glyph glyph-name="" unicode=" " d="" /><glyph glyph-name="" unicode="!" d="M245 712 l-124 0 l24 -500 l77 0 l23 500 ZM248 62 q-1 28 -19 46 q-18 18 -46 19 q-28 -1 -46 -19 q-18 -18 -19 -46 q1 -28 19 -46 q18 -18 46 -19 q28 1 46 19 q18 18 19 46 l0 0 Z" /><glyph glyph-name="" unicode="&quot;" d="M366 521 l0 191 l-101 0 l0 -191 l101 0 ZM179 521 l0 191 l-101 0 l0 -191 l101 0 Z" /><glyph glyph-name="" unicode="#" d="M623 426 l0 94 l-78 0 l31 196 l-106 0 l-31 -196 l-136 0 l31 196 l-107 0 l-31 -196 l-95 0 l0 -94 l81 0 l-20 -124 l-94 0 l0 -94 l79 0 l-33 -208 l107 0 l32 208 l137 0 l-33 -208 l106 0 l33 208 l94 0 l0 94 l-79 0 l20 124 l92 0 ZM424 426 l-19 -124 l-137 0 l20 124 l136 0 Z" /><glyph glyph-name="" unicode="$" d="M556 203 q0 46 -14 83 q-15 37 -44 63 q-22 20 -53 33 q-31 13 -80 20 l-34 5 l0 216 q38 -3 72 -16 q33 -13 59 -38 l69 68 q-40 38 -86 57 q-46 20 -105 23 l0 89 l-82 0 l0 -90 q-97 -10 -150 -65 q-53 -55 -54 -142 q0 -87 53 -136 q22 -21 57 -36 q34 -15 77 -21 l26 -3 l0 -222 q-48 2 -88 17 q-41 16 -77 51 l-72 -71 q47 -47 102 -69 q55 -22 126 -25 l0 -108 l82 0 l0 111 q98 10 156 63 q59 53 60 143 l0 0 ZM267 414 q-23 3 -44 11 q-21 8 -37 22 q-14 13 -21 30 q-6 16 -6 36 q0 44 28 74 q27 29 80 35 l0 -208 ZM449 200 q0 -47 -31 -74 q-31 -28 -87 -33 l0 212 q25 -3 48 -8 q22 -6 42 -23 q14 -13 21 -32 q7 -19 7 -42 l0 0 Z" /><glyph glyph-name="" unicode="%" d="M784 130 l0 101 q-1 65 -41 101 q-39 36 -99 36 q-60 0 -99 -36 q-40 -36 -41 -101 l0 -101 q1 -65 41 -101 q39 -35 99 -36 q60 1 99 36 q40 36 41 101 l0 0 ZM629 712 l-81 0 l-336 -712 l82 0 l335 712 ZM338 481 l0 101 q-1 65 -41 101 q-39 36 -99 36 q-60 0 -99 -36 q-40 -36 -41 -101 l0 -101 q1 -65 41 -100 q39 -36 99 -36 q60 0 99 36 q40 35 41 100 l0 0 ZM707 133 q0 -34 -15 -53 q-16 -19 -48 -19 q-32 0 -48 19 q-15 18 -15 53 l0 95 q0 35 15 53 q16 19 48 19 q32 0 48 -19 q15 -19 15 -53 l0 -95 ZM261 484 q0 -34 -15 -52 q-16 -19 -48 -19 q-32 0 -48 18 q-15 18 -15 53 l0 95 q0 35 15 53 q16 19 48 19 q32 0 48 -19 q15 -19 15 -53 l0 -95 Z" /><glyph glyph-name="" unicode="&amp;" d="M684 0 l-119 142 q36 42 52 96 q17 55 19 123 l-98 0 q-1 -48 -10 -82 q-9 -34 -28 -61 l-150 179 q14 10 32 23 q18 12 20 13 q34 23 55 54 q20 30 21 72 q-1 70 -47 114 q-45 44 -122 45 q-80 -1 -127 -45 q-46 -43 -47 -113 q2 -49 25 -87 q23 -38 49 -66 q-55 -33 -97 -81 q-42 -47 -44 -120 q1 -98 60 -154 q59 -57 170 -58 q80 2 127 28 q47 26 70 48 l58 -70 l131 0 ZM380 558 q-1 -24 -15 -42 q-15 -18 -37 -32 q-1 -1 -13 -9 q-12 -8 -21 -14 q-27 31 -41 54 q-14 23 -14 44 q0 31 19 50 q18 19 51 20 q32 -1 51 -20 q20 -20 20 -51 l0 0 ZM434 142 q-35 -31 -68 -43 q-32 -12 -68 -12 q-57 1 -92 34 q-36 33 -37 87 q1 48 29 79 q27 30 67 56 l169 -201 Z" /><glyph glyph-name="" unicode="&#x2019;" d="M190 607 l0 105 l-112 0 l0 -196 l112 91 Z" /><glyph glyph-name="" unicode="(" d="M259 -25 q-18 17 -31 32 q-14 14 -25 34 q-15 28 -15 82 l0 466 q0 54 15 82 q11 20 25 35 q13 14 31 31 l-69 69 q-24 -24 -45 -46 q-21 -22 -36 -49 q-15 -28 -19 -57 q-5 -29 -4 -59 l0 -478 q-1 -30 4 -59 q4 -29 19 -57 q15 -27 36 -49 q21 -22 45 -46 l69 69 Z" /><glyph glyph-name="" unicode=")" d="M232 117 l0 478 q0 30 -4 59 q-5 29 -20 57 q-15 27 -35 49 q-21 22 -45 46 l-70 -70 q18 -17 31 -31 q13 -15 24 -35 q15 -28 15 -81 l0 -466 q0 -52 -15 -81 q-11 -20 -24 -34 q-13 -15 -31 -32 l70 -70 q24 24 45 46 q20 22 35 49 q15 28 20 57 q4 29 4 59 l0 0 Z" /><glyph glyph-name="" unicode="*" d="M424 466 l-115 61 l115 62 l-37 65 l-111 -69 l4 130 l-75 0 l4 -130 l-111 69 l-37 -65 l115 -62 l-115 -61 l37 -65 l111 69 l-4 -131 l75 0 l-4 131 l111 -69 l37 65 Z" /><glyph glyph-name="" unicode="+" d="M482 225 l0 95 l-168 0 l0 167 l-95 0 l0 -167 l-168 0 l0 -95 l168 0 l0 -168 l95 0 l0 168 l168 0 Z" /><glyph glyph-name="" unicode="," d="M194 -60 l0 176 l-116 0 l0 -271 l116 95 Z" /><glyph glyph-name="" unicode="-" d="M359 230 l0 95 l-292 0 l0 -95 l292 0 Z" /><glyph glyph-name="" unicode="." d="M215 70 q-1 31 -21 51 q-21 20 -52 21 q-31 -1 -51 -21 q-21 -20 -22 -51 q1 -31 22 -51 q20 -21 51 -22 q31 1 52 22 q20 20 21 51 l0 0 Z" /><glyph glyph-name="" unicode="/" d="M383 786 l-98 0 l-285 -860 l98 0 l285 860 Z" /><glyph glyph-name="" unicode="0" d="M473 198 l0 201 q-2 96 -61 150 q-58 53 -145 54 q-87 -1 -145 -54 q-59 -54 -61 -150 l0 -201 q2 -96 61 -150 q58 -53 145 -54 q87 1 145 54 q59 54 61 150 l0 0 ZM371 201 q0 -53 -28 -84 q-27 -31 -76 -32 q-49 1 -76 32 q-28 31 -28 84 l0 195 q0 53 28 84 q27 31 76 32 q49 -1 76 -32 q28 -31 28 -84 l0 -195 Z" /><glyph glyph-name="" unicode="1" d="M294 0 l0 597 l-102 0 l-140 -120 l0 -113 l140 122 l0 -486 l102 0 Z" /><glyph glyph-name="" unicode="2" d="M471 0 l0 91 l-291 0 l165 156 q48 43 78 87 q31 44 32 99 q-2 85 -57 137 q-56 52 -148 53 q-89 -1 -147 -54 q-58 -53 -60 -142 l102 0 q1 51 32 78 q30 27 73 27 q46 -1 74 -29 q28 -27 29 -71 q0 -32 -18 -62 q-18 -30 -51 -59 l-242 -220 l0 -91 l429 0 Z" /><glyph glyph-name="" unicode="3" d="M472 85 q-1 66 -27 106 q-27 41 -73 61 q42 20 65 58 q23 37 23 94 q-2 90 -58 144 q-57 54 -149 55 q-87 -1 -145 -51 q-58 -51 -64 -142 l102 0 q4 48 32 75 q28 27 75 27 q45 0 74 -28 q30 -28 31 -82 q0 -49 -26 -79 q-27 -29 -82 -30 l-17 0 l0 -89 l17 0 q60 -1 90 -31 q30 -31 30 -86 q-1 -57 -33 -87 q-32 -31 -83 -31 q-46 0 -79 26 q-34 25 -38 82 l-102 0 q6 -104 68 -152 q63 -48 151 -47 q92 0 154 52 q62 52 64 155 l0 0 Z" /><glyph glyph-name="" unicode="4" d="M526 30 l0 95 l-85 0 l0 176 l-98 0 l0 -176 l-196 0 l253 510 l-109 0 l-253 -510 l0 -95 l305 0 l0 -153 l98 0 l0 153 l85 0 Z" /><glyph glyph-name="" unicode="5" d="M477 123 q1 51 -11 100 q-12 49 -51 90 q-22 22 -54 34 q-32 12 -74 12 q-39 0 -69 -11 q-30 -11 -48 -30 l0 188 l291 0 l0 91 l-383 0 l0 -389 l92 0 q8 27 33 45 q26 18 69 19 q60 -1 82 -43 q22 -41 21 -106 q1 -36 -5 -69 q-6 -33 -28 -56 q-14 -14 -33 -21 q-19 -7 -42 -7 q-48 0 -73 26 q-25 25 -31 73 l-102 0 q3 -38 15 -73 q12 -34 40 -63 q23 -24 62 -39 q38 -15 89 -16 q52 1 89 16 q37 16 61 40 q38 39 50 86 q11 46 10 103 l0 0 Z" /><glyph glyph-name="" unicode="6" d="M492 223 q-2 102 -57 160 q-54 58 -141 59 q-24 0 -44 -4 q-20 -3 -38 -13 l175 303 l-109 0 l-171 -306 q-31 -54 -46 -103 q-15 -48 -15 -101 q2 -106 62 -164 q61 -59 161 -60 q100 1 161 62 q60 61 62 167 l0 0 ZM390 220 q-1 -64 -33 -101 q-33 -36 -88 -37 q-55 1 -87 37 q-33 37 -34 101 q1 64 34 101 q32 37 87 38 q57 -1 89 -40 q32 -39 32 -99 l0 0 Z" /><glyph glyph-name="" unicode="7" d="M493 506 l0 91 l-448 0 l0 -203 l98 0 l0 112 l241 0 l-276 -626 l109 0 l276 626 Z" /><glyph glyph-name="" unicode="8" d="M494 201 q-1 63 -30 104 q-29 41 -68 63 q36 21 60 59 q25 38 26 94 q-2 90 -60 143 q-59 53 -148 54 q-89 -1 -147 -54 q-59 -53 -61 -143 q1 -56 26 -94 q25 -38 61 -59 q-39 -22 -68 -63 q-29 -41 -30 -104 q2 -98 64 -152 q61 -54 155 -55 q94 1 156 55 q62 54 64 152 l0 0 ZM380 518 q-1 -48 -30 -78 q-29 -29 -76 -30 q-47 1 -76 30 q-29 30 -30 78 q1 48 30 78 q29 30 76 31 q47 -1 76 -31 q29 -30 30 -78 l0 0 ZM392 203 q-1 -51 -34 -84 q-33 -33 -84 -34 q-51 1 -83 34 q-33 33 -34 84 q1 51 34 84 q32 34 83 35 q51 -1 84 -35 q33 -33 34 -84 l0 0 Z" /><glyph glyph-name="" unicode="9" d="M492 379 q-2 106 -62 165 q-61 58 -161 59 q-100 -1 -161 -62 q-60 -61 -62 -167 q2 -102 57 -160 q55 -58 142 -59 q24 0 44 4 q19 3 37 13 l-175 -303 l109 0 l172 306 q31 54 45 103 q15 49 15 101 l0 0 ZM390 377 q-1 -64 -33 -101 q-33 -37 -88 -38 q-57 1 -89 40 q-32 39 -32 99 q1 64 34 101 q32 36 87 37 q55 -1 88 -37 q32 -37 33 -101 l0 0 Z" /><glyph glyph-name="" unicode=":" d="M240 347 q-1 31 -21 52 q-20 20 -51 21 q-31 -1 -51 -21 q-21 -21 -22 -52 q1 -31 22 -51 q20 -21 51 -22 q31 1 51 22 q20 20 21 51 l0 0 ZM240 70 q-1 31 -21 51 q-20 20 -51 21 q-31 -1 -51 -21 q-21 -20 -22 -51 q1 -31 22 -51 q20 -21 51 -22 q31 1 51 22 q20 20 21 51 l0 0 Z" /><glyph glyph-name="" unicode=";" d="M240 347 q-1 31 -21 52 q-20 20 -51 21 q-31 -1 -51 -21 q-21 -21 -22 -52 q1 -31 22 -51 q20 -21 51 -22 q31 1 51 22 q20 20 21 51 l0 0 ZM226 -60 l0 176 l-116 0 l0 -271 l116 95 Z" /><glyph glyph-name="" unicode="&lt;" d="M905 209 l0 130 l-343 -345 l0 745 l-97 0 l0 -745 l-343 345 l0 -130 l392 -392 l391 392 Z" /><glyph glyph-name="" unicode="=" d="M482 327 l0 95 l-431 0 l0 -95 l431 0 ZM482 133 l0 95 l-431 0 l0 -95 l431 0 Z" /><glyph glyph-name="" unicode="&gt;" d="M906 217 l0 130 l-392 392 l-392 -392 l0 -130 l344 345 l0 -745 l96 0 l0 745 l344 -345 Z" /><glyph glyph-name="" unicode="?" d="M470 527 q-2 89 -59 140 q-57 50 -141 51 q-87 -1 -142 -54 q-55 -52 -57 -138 l102 0 q0 42 25 71 q25 29 72 30 q44 -1 71 -29 q26 -28 27 -71 q0 -21 -9 -39 q-8 -19 -22 -37 l-78 -105 q-18 -23 -26 -46 q-8 -23 -8 -53 l0 -35 l102 0 l0 30 q0 12 5 27 q5 15 13 27 l77 108 q21 27 34 57 q14 30 14 66 l0 0 ZM340 62 q-1 28 -19 46 q-18 18 -46 19 q-28 -1 -45 -19 q-18 -18 -19 -46 q1 -28 19 -46 q17 -18 45 -19 q28 1 46 19 q18 18 19 46 l0 0 Z" /><glyph glyph-name="" unicode="@" d="M672 -2 l0 483 q0 56 -14 100 q-14 43 -46 75 q-32 31 -75 45 q-43 14 -96 14 l-146 0 q-55 0 -98 -14 q-43 -14 -74 -45 q-31 -32 -45 -75 q-14 -44 -14 -100 l0 -318 q-1 -65 17 -103 q18 -38 62 -72 l70 70 q-29 22 -40 46 q-11 23 -10 64 l0 312 q0 35 7 61 q8 25 30 47 q21 21 47 29 q26 8 58 8 l126 0 q32 0 59 -8 q27 -9 47 -29 q21 -21 29 -47 q8 -26 8 -61 l0 -61 q-24 28 -54 42 q-31 14 -72 14 q-42 0 -76 -15 q-34 -15 -56 -42 q-26 -31 -35 -75 q-9 -44 -8 -109 q-1 -67 8 -110 q9 -44 37 -75 q23 -26 57 -41 q33 -15 74 -15 q43 0 73 14 q31 15 54 43 l0 -50 l96 -2 ZM574 234 q2 -66 -19 -109 q-21 -43 -83 -45 q-61 2 -82 45 q-21 43 -19 109 q-2 66 19 110 q21 43 82 45 q62 -2 83 -45 q21 -44 19 -110 l0 0 Z" /><glyph glyph-name="" unicode="A" d="M617 0 l-261 712 l-87 0 l-261 -712 l115 0 l49 143 l281 0 l49 -143 l115 0 ZM423 235 l-219 0 l111 316 l108 -316 Z" /><glyph glyph-name="" unicode="B" d="M596 201 q-2 67 -33 108 q-31 41 -74 57 q38 15 66 54 q29 39 30 97 q-1 91 -58 143 q-57 51 -157 52 l-277 0 l0 -712 l288 0 q96 0 155 51 q58 51 60 150 l0 0 ZM477 513 q-1 -50 -32 -76 q-31 -26 -84 -26 l-160 0 l0 204 l160 0 q53 0 84 -26 q31 -26 32 -76 l0 0 ZM488 206 q0 -48 -30 -78 q-30 -30 -87 -31 l-170 0 l0 217 l170 0 q57 -1 87 -30 q30 -30 30 -78 l0 0 Z" /><glyph glyph-name="" unicode="C" d="M522 78 l-72 73 q-27 -28 -55 -44 q-29 -16 -72 -16 q-32 0 -59 11 q-27 12 -46 32 q-26 25 -34 72 q-9 46 -8 150 q-1 104 8 150 q8 47 34 72 q19 20 46 32 q27 11 59 11 q43 0 72 -16 q28 -16 55 -44 l72 73 q-39 39 -86 62 q-47 22 -113 22 q-56 0 -103 -20 q-47 -19 -84 -56 q-50 -51 -61 -118 q-10 -67 -8 -168 q-2 -101 8 -168 q11 -67 61 -118 q37 -37 84 -56 q47 -20 103 -20 q66 0 113 23 q47 22 86 61 l0 0 Z" /><glyph glyph-name="" unicode="D" d="M599 361 q3 78 -7 152 q-10 73 -65 132 q-34 34 -81 50 q-47 17 -103 17 l-250 0 l0 -712 l250 0 q56 0 103 17 q47 16 81 50 q55 59 65 137 q10 78 7 157 l0 0 ZM491 361 q1 -74 -5 -129 q-6 -56 -33 -87 q-22 -25 -53 -36 q-30 -12 -68 -12 l-131 0 l0 518 l131 0 q38 0 68 -12 q31 -11 53 -36 q27 -31 33 -82 q6 -51 5 -124 l0 0 Z" /><glyph glyph-name="" unicode="E" d="M548 0 l0 97 l-347 0 l0 214 l296 0 l0 96 l-296 0 l0 208 l347 0 l0 97 l-455 0 l0 -712 l455 0 Z" /><glyph glyph-name="" unicode="F" d="M548 615 l0 97 l-455 0 l0 -712 l108 0 l0 301 l296 0 l0 97 l-296 0 l0 217 l347 0 Z" /><glyph glyph-name="" unicode="G" d="M580 278 l0 107 l-257 0 l0 -92 l149 0 l0 -39 q0 -33 -8 -62 q-8 -29 -27 -51 q-21 -24 -50 -37 q-29 -13 -64 -13 q-32 0 -59 11 q-28 12 -47 32 q-26 25 -34 72 q-9 46 -8 150 q-1 104 8 150 q8 46 34 71 q19 20 47 32 q27 12 59 12 q47 0 78 -18 q32 -18 64 -52 l73 73 q-46 48 -95 71 q-49 23 -120 23 q-57 0 -104 -20 q-46 -19 -83 -56 q-50 -51 -61 -118 q-10 -67 -8 -168 q-2 -101 8 -168 q11 -67 61 -118 q37 -37 84 -56 q47 -20 103 -20 q59 0 108 21 q48 21 86 61 q35 37 49 85 q14 49 14 117 l0 0 Z" /><glyph glyph-name="" unicode="H" d="M598 0 l0 712 l-108 0 l0 -304 l-289 0 l0 304 l-108 0 l0 -712 l108 0 l0 311 l289 0 l0 -311 l108 0 Z" /><glyph glyph-name="" unicode="I" d="M201 0 l0 712 l-108 0 l0 -712 l108 0 Z" /><glyph glyph-name="" unicode="J" d="M423 225 l0 487 l-108 0 l0 -479 q-1 -70 -34 -106 q-34 -36 -95 -36 q-38 0 -61 12 q-22 12 -40 31 l-72 -71 q36 -36 78 -53 q41 -16 95 -16 q101 1 168 60 q66 59 69 171 l0 0 Z" /><glyph glyph-name="" unicode="K" d="M648 0 l-255 433 l231 279 l-132 0 l-291 -358 l0 358 l-108 0 l0 -712 l108 0 l0 207 l120 144 l200 -351 l127 0 Z" /><glyph glyph-name="" unicode="L" d="M544 0 l0 97 l-343 0 l0 615 l-108 0 l0 -712 l451 0 Z" /><glyph glyph-name="" unicode="M" d="M721 0 l0 712 l-108 0 l-204 -443 l-208 443 l-108 0 l0 -712 l108 0 l0 476 l168 -347 l80 0 l164 347 l0 -476 l108 0 Z" /><glyph glyph-name="" unicode="N" d="M629 0 l0 712 l-108 0 l0 -500 l-329 500 l-99 0 l0 -712 l108 0 l0 501 l329 -501 l99 0 Z" /><glyph glyph-name="" unicode="O" d="M579 356 q2 101 -8 168 q-10 67 -60 118 q-37 37 -84 56 q-47 20 -104 20 q-57 0 -104 -20 q-46 -19 -83 -56 q-50 -51 -61 -118 q-10 -67 -8 -168 q-2 -101 8 -168 q11 -67 61 -118 q37 -37 83 -56 q47 -20 104 -20 q57 0 104 20 q47 19 84 56 q50 51 60 118 q10 67 8 168 l0 0 ZM471 356 q1 -104 -8 -150 q-8 -46 -34 -71 q-19 -20 -47 -32 q-27 -12 -59 -12 q-32 0 -59 12 q-28 12 -47 32 q-26 25 -34 71 q-9 46 -8 150 q-1 104 8 150 q8 46 34 71 q19 20 47 32 q27 12 59 12 q32 0 59 -12 q28 -12 47 -32 q26 -25 34 -71 q9 -46 8 -150 l0 0 Z" /><glyph glyph-name="" unicode="P" d="M591 496 q-1 95 -62 155 q-61 59 -166 61 l-270 0 l0 -712 l108 0 l0 280 l162 0 q105 2 166 62 q61 59 62 154 l0 0 ZM483 496 q-1 -57 -35 -87 q-34 -31 -91 -31 l-156 0 l0 237 l156 0 q57 0 91 -31 q34 -31 35 -88 l0 0 Z" /><glyph glyph-name="" unicode="Q" d="M603 28 l-70 69 q34 47 41 108 q7 61 5 151 q2 101 -8 168 q-10 67 -60 118 q-37 37 -84 56 q-47 20 -104 20 q-57 0 -104 -20 q-46 -19 -83 -56 q-50 -51 -61 -118 q-10 -67 -8 -168 q-2 -101 8 -168 q11 -67 61 -118 q37 -37 83 -56 q47 -20 104 -20 q42 0 80 12 q38 11 69 33 l71 -71 l60 60 ZM471 356 q0 -68 -4 -109 q-4 -41 -17 -67 l-69 69 l-60 -60 l75 -75 q-16 -11 -34 -17 q-19 -6 -39 -6 q-32 0 -59 12 q-28 12 -47 32 q-26 25 -34 71 q-9 46 -8 150 q-1 104 8 150 q8 46 34 71 q19 20 47 32 q27 12 59 12 q32 0 59 -12 q28 -12 47 -32 q26 -25 34 -71 q9 -46 8 -150 l0 0 Z" /><glyph glyph-name="" unicode="R" d="M612 0 l-164 315 q61 17 101 65 q40 47 41 124 q-1 92 -60 149 q-59 57 -161 59 l-276 0 l0 -712 l108 0 l0 300 l135 0 l150 -300 l126 0 ZM482 503 q-1 -53 -33 -82 q-33 -29 -88 -29 l-160 0 l0 223 l160 0 q55 0 88 -30 q32 -29 33 -82 l0 0 Z" /><glyph glyph-name="" unicode="S" d="M538 203 q0 46 -14 83 q-15 37 -44 63 q-22 20 -53 33 q-31 13 -80 20 l-81 12 q-25 4 -46 12 q-20 9 -34 21 q-14 13 -21 30 q-6 16 -6 36 q0 48 34 79 q33 31 96 32 q45 1 84 -12 q38 -12 71 -43 l69 68 q-45 42 -98 62 q-53 19 -123 19 q-112 -1 -174 -58 q-63 -57 -64 -151 q0 -87 52 -136 q23 -22 57 -36 q34 -15 78 -21 l84 -12 q31 -4 48 -11 q17 -7 30 -19 q14 -13 21 -32 q7 -19 7 -42 q0 -52 -39 -80 q-38 -29 -108 -29 q-54 -1 -99 15 q-44 15 -83 53 l-72 -71 q50 -51 111 -73 q61 -22 141 -21 q114 1 184 55 q70 55 72 154 l0 0 Z" /><glyph glyph-name="" unicode="T" d="M530 615 l0 97 l-500 0 l0 -97 l196 0 l0 -615 l108 0 l0 615 l196 0 Z" /><glyph glyph-name="" unicode="U" d="M593 240 l0 472 l-108 0 l0 -467 q-1 -72 -41 -113 q-39 -40 -107 -41 q-68 1 -107 41 q-39 41 -40 113 l0 467 l-108 0 l0 -472 q2 -112 73 -178 q71 -66 182 -68 q111 2 182 68 q72 66 74 178 l0 0 Z" /><glyph glyph-name="" unicode="V" d="M559 712 l-114 0 l-164 -518 l-164 518 l-112 0 l234 -712 l84 0 l236 712 Z" /><glyph glyph-name="" unicode="W" d="M860 712 l-114 0 l-124 -509 l-143 509 l-87 0 l-143 -509 l-124 509 l-114 0 l186 -712 l94 0 l144 499 l145 -499 l94 0 l186 712 Z" /><glyph glyph-name="" unicode="X" d="M568 0 l-221 365 l206 347 l-124 0 l-141 -255 l-140 255 l-124 0 l206 -347 l-220 -365 l124 0 l154 273 l155 -273 l125 0 Z" /><glyph glyph-name="" unicode="Y" d="M539 712 l-118 0 l-149 -313 l-149 313 l-118 0 l213 -419 l0 -293 l108 0 l0 293 l213 419 Z" /><glyph glyph-name="" unicode="Z" d="M504 0 l0 97 l-331 0 l331 527 l0 88 l-442 0 l0 -97 l315 0 l-329 -522 l0 -93 l456 0 Z" /><glyph glyph-name="" unicode="[" d="M304 -74 l0 91 l-116 0 l0 678 l116 0 l0 91 l-218 0 l0 -860 l218 0 Z" /><glyph glyph-name="" unicode="\" d="M380 -74 l-282 852 l-98 0 l282 -852 l98 0 Z" /><glyph glyph-name="" unicode="]" d="M261 -74 l0 860 l-218 0 l0 -90 l118 0 l0 -680 l-118 0 l0 -90 l218 0 Z" /><glyph glyph-name="" unicode="^" d="M503 401 l-171 318 l-93 0 l-172 -318 l106 0 l112 207 l112 -207 l106 0 Z" /><glyph glyph-name="" unicode="_" d="M571 -172 l0 70 l-571 0 l0 -70 l571 0 Z" /><glyph glyph-name="" unicode="&#x2018;" d="M190 608 l0 197 l-112 -93 l0 -104 l112 0 Z" /><glyph glyph-name="" unicode="a" d="M454 0 l0 339 q0 86 -52 130 q-53 44 -157 44 q-62 1 -104 -15 q-43 -17 -78 -58 l67 -63 q20 27 45 38 q25 11 66 11 q59 0 85 -23 q26 -24 26 -72 l0 -36 l-134 0 q-87 -1 -131 -41 q-44 -40 -44 -105 q0 -32 10 -60 q10 -28 30 -49 q23 -23 56 -35 q33 -11 80 -11 q46 0 77 12 q31 12 58 40 l0 -46 l100 0 ZM352 183 q0 -27 -5 -45 q-6 -19 -17 -30 q-20 -19 -43 -24 q-23 -6 -52 -5 q-48 0 -70 19 q-23 18 -23 53 q0 35 23 54 q23 19 68 19 l119 0 l0 -41 Z" /><glyph glyph-name="" unicode="b" d="M496 254 q1 59 -9 117 q-11 57 -48 97 q-21 21 -53 33 q-31 12 -70 12 q-40 1 -73 -12 q-32 -13 -60 -45 l0 256 l-102 0 l0 -712 l100 0 l0 54 q28 -34 61 -47 q32 -14 73 -13 q39 0 71 12 q32 12 53 33 q37 40 48 98 q10 58 9 117 l0 0 ZM394 254 q2 -70 -18 -118 q-20 -49 -87 -51 q-67 2 -87 51 q-21 48 -19 118 q-2 70 19 118 q20 48 87 50 q67 -2 87 -50 q20 -48 18 -118 l0 0 Z" /><glyph glyph-name="" unicode="c" d="M448 66 l-70 67 q-23 -26 -45 -37 q-23 -11 -52 -11 q-29 0 -53 12 q-24 11 -41 33 q-16 21 -23 50 q-7 30 -7 74 q0 44 7 73 q7 29 23 50 q17 22 41 33 q24 12 53 12 q29 0 52 -11 q22 -11 45 -37 l70 68 q-35 38 -75 55 q-40 16 -92 16 q-89 2 -156 -58 q-67 -60 -70 -201 q3 -141 70 -201 q67 -61 156 -59 q52 0 92 17 q40 17 75 55 l0 0 Z" /><glyph glyph-name="" unicode="d" d="M472 0 l0 712 l-102 0 l0 -256 q-28 32 -60 45 q-33 13 -73 12 q-39 0 -70 -12 q-32 -12 -53 -33 q-37 -40 -48 -97 q-10 -58 -9 -117 q-1 -59 9 -117 q11 -58 48 -98 q21 -21 53 -33 q32 -12 71 -12 q41 -1 73 13 q33 13 61 47 l0 -54 l100 0 ZM370 254 q2 -70 -18 -118 q-20 -49 -87 -51 q-67 2 -87 51 q-21 48 -19 118 q-2 70 19 118 q20 48 87 50 q67 -2 87 -50 q20 -48 18 -118 l0 0 Z" /><glyph glyph-name="" unicode="e" d="M485 224 l0 45 q-1 110 -56 176 q-56 66 -159 68 q-99 -1 -156 -68 q-58 -67 -59 -191 q2 -143 66 -202 q64 -60 162 -58 q65 0 109 20 q43 20 81 59 l-65 61 q-26 -27 -54 -39 q-27 -13 -69 -13 q-63 1 -96 38 q-33 38 -33 104 l329 0 ZM384 295 l-228 0 q1 23 3 38 q3 15 10 31 q12 29 39 46 q26 18 62 18 q36 0 62 -18 q26 -17 38 -46 q7 -16 10 -31 q3 -15 4 -38 l0 0 Z" /><glyph glyph-name="" unicode="f" d="M300 420 l0 78 l-101 0 l0 73 q0 28 14 43 q14 16 42 16 l45 0 l0 87 l-64 0 q-71 -2 -105 -43 q-34 -41 -34 -98 l0 -78 l-58 0 l0 -78 l58 0 l0 -420 l102 0 l0 420 l101 0 Z" /><glyph glyph-name="" unicode="g" d="M468 3 l0 504 l-99 0 l0 -54 q-28 34 -60 47 q-33 14 -73 13 q-38 0 -70 -11 q-31 -12 -52 -33 q-36 -37 -47 -89 q-11 -52 -10 -117 q-1 -65 10 -117 q11 -52 47 -89 q21 -21 52 -33 q31 -12 69 -12 q39 0 71 13 q32 13 60 45 l0 -65 q1 -53 -27 -90 q-28 -37 -92 -39 q-37 0 -62 11 q-25 12 -48 34 l-65 -65 q39 -36 81 -52 q41 -15 98 -15 q102 2 159 61 q57 58 58 153 l0 0 ZM366 263 q2 -62 -17 -109 q-19 -48 -86 -50 q-67 2 -86 50 q-20 47 -18 109 q-2 62 18 110 q19 47 86 49 q67 -2 86 -49 q19 -48 17 -110 l0 0 Z" /><glyph glyph-name="" unicode="h" d="M490 0 l0 327 q0 84 -46 134 q-45 51 -130 52 q-38 0 -71 -14 q-34 -14 -60 -43 l0 256 l-102 0 l0 -712 l102 0 l0 311 q1 57 30 84 q29 27 73 27 q44 0 72 -27 q29 -27 30 -84 l0 -311 l102 0 Z" /><glyph glyph-name="" unicode="i" d="M198 672 q-1 28 -19 47 q-19 18 -47 19 q-28 -1 -46 -19 q-19 -19 -20 -47 q1 -28 20 -46 q18 -19 46 -20 q28 1 47 20 q18 18 19 46 l0 0 ZM183 0 l0 507 l-102 0 l0 -507 l102 0 Z" /><glyph glyph-name="" unicode="j" d="M198 672 q-1 28 -19 47 q-19 18 -47 19 q-28 -1 -46 -19 q-19 -19 -20 -47 q1 -28 20 -46 q18 -19 46 -20 q28 1 47 20 q18 18 19 46 l0 0 ZM183 -67 l0 574 l-102 0 l0 -568 q0 -29 -12 -44 q-13 -15 -43 -15 l-45 0 l0 -87 l63 0 q72 2 106 42 q33 40 33 98 l0 0 Z" /><glyph glyph-name="" unicode="k" d="M526 0 l-198 308 l176 199 l-124 0 l-197 -234 l0 439 l-102 0 l0 -712 l102 0 l0 149 l75 85 l142 -234 l126 0 Z" /><glyph glyph-name="" unicode="l" d="M280 0 l0 87 l-45 0 q-30 0 -43 15 q-12 15 -12 44 l0 566 l-102 0 l0 -572 q0 -58 34 -98 q33 -40 105 -42 l63 0 Z" /><glyph glyph-name="" unicode="m" d="M801 0 l0 324 q0 43 -12 79 q-13 35 -42 64 q-23 22 -56 34 q-33 12 -72 12 q-50 0 -89 -18 q-39 -19 -70 -56 q-24 37 -60 55 q-37 19 -84 19 q-39 0 -74 -15 q-35 -14 -61 -42 l0 51 l-100 0 l0 -507 l102 0 l0 309 q1 58 31 86 q30 27 74 27 q44 0 72 -27 q29 -27 30 -86 l0 -309 l102 0 l0 314 q1 55 32 81 q30 27 73 27 q44 0 72 -27 q29 -27 30 -86 l0 -309 l102 0 Z" /><glyph glyph-name="" unicode="n" d="M492 0 l0 324 q0 43 -11 79 q-11 35 -40 64 q-23 22 -54 34 q-32 12 -71 12 q-39 0 -73 -14 q-35 -14 -62 -43 l0 51 l-100 0 l0 -507 l102 0 l0 309 q1 58 31 86 q30 27 74 27 q44 0 72 -27 q29 -27 30 -86 l0 -309 l102 0 Z" /><glyph glyph-name="" unicode="o" d="M480 254 q1 64 -12 113 q-13 49 -48 86 q-25 26 -62 43 q-38 16 -90 17 q-52 -1 -89 -17 q-37 -17 -62 -43 q-35 -37 -48 -86 q-13 -49 -12 -113 q-1 -64 12 -113 q13 -50 48 -87 q25 -26 62 -43 q37 -16 89 -17 q52 1 90 17 q37 17 62 43 q35 37 48 87 q13 49 12 113 l0 0 ZM378 254 q1 -42 -6 -78 q-6 -37 -29 -61 q-14 -14 -33 -22 q-19 -8 -42 -8 q-23 0 -41 8 q-19 8 -33 22 q-23 24 -29 61 q-7 36 -6 78 q-1 42 6 79 q6 36 29 60 q29 29 74 29 q23 0 42 -7 q19 -8 33 -22 q23 -24 29 -60 q7 -37 6 -79 l0 0 Z" /><glyph glyph-name="" unicode="p" d="M496 254 q1 59 -9 117 q-11 57 -48 97 q-21 21 -53 33 q-32 12 -71 12 q-41 1 -73 -13 q-33 -13 -61 -47 l0 54 l-100 0 l0 -712 l102 0 l0 257 q28 -32 60 -45 q33 -13 73 -13 q39 0 70 12 q32 12 53 33 q37 40 48 98 q10 58 9 117 l0 0 ZM394 254 q2 -70 -18 -118 q-20 -49 -87 -51 q-67 2 -87 51 q-21 48 -19 118 q-2 70 19 118 q20 48 87 50 q67 -2 87 -50 q20 -48 18 -118 l0 0 Z" /><glyph glyph-name="" unicode="q" d="M472 -205 l0 712 l-100 0 l0 -54 q-28 34 -61 47 q-32 14 -73 13 q-39 0 -71 -12 q-32 -12 -53 -33 q-37 -40 -48 -97 q-10 -58 -9 -117 q-1 -59 9 -117 q11 -58 48 -98 q21 -21 53 -33 q31 -12 70 -12 q40 0 73 13 q32 13 60 45 l0 -257 l102 0 ZM370 254 q2 -70 -18 -118 q-20 -49 -87 -51 q-67 2 -87 51 q-21 48 -19 118 q-2 70 19 118 q20 48 87 50 q67 -2 87 -50 q20 -48 18 -118 l0 0 Z" /><glyph glyph-name="" unicode="r" d="M437 465 q-26 26 -55 37 q-30 11 -66 11 q-43 0 -79 -17 q-36 -17 -56 -44 l0 55 l-100 0 l0 -507 l102 0 l0 308 q1 53 30 83 q29 30 71 31 q26 0 43 -8 q16 -9 33 -26 l77 77 Z" /><glyph glyph-name="" unicode="s" d="M456 155 q-1 67 -40 102 q-39 35 -111 41 l-80 7 q-40 4 -55 20 q-16 15 -15 38 q0 29 23 47 q23 18 69 18 q36 0 69 -8 q32 -9 56 -29 l64 65 q-35 30 -83 44 q-48 13 -105 13 q-81 0 -135 -40 q-54 -40 -56 -115 q0 -66 39 -100 q39 -34 111 -40 l81 -7 q36 -3 52 -19 q16 -15 16 -41 q-1 -36 -32 -53 q-31 -17 -79 -17 q-38 -1 -76 11 q-39 11 -70 42 l-67 -67 q45 -43 98 -59 q53 -15 115 -14 q93 0 151 41 q58 40 60 120 l0 0 Z" /><glyph glyph-name="" unicode="t" d="M293 0 l0 87 l-42 0 q-28 0 -42 16 q-14 15 -14 43 l0 274 l98 0 l0 78 l-98 0 l0 154 l-102 0 l0 -154 l-58 0 l0 -78 l58 0 l0 -279 q0 -57 34 -98 q34 -41 105 -43 l61 0 Z" /><glyph glyph-name="" unicode="u" d="M487 0 l0 507 l-102 0 l0 -309 q-1 -58 -31 -86 q-30 -27 -74 -27 q-44 0 -72 27 q-29 27 -30 86 l0 309 l-102 0 l0 -324 q0 -43 11 -79 q11 -35 40 -64 q23 -22 54 -34 q32 -12 71 -12 q39 0 74 14 q34 15 61 43 l0 -51 l100 0 Z" /><glyph glyph-name="" unicode="v" d="M463 507 l-108 0 l-119 -357 l-120 357 l-108 0 l186 -507 l83 0 l186 507 Z" /><glyph glyph-name="" unicode="w" d="M735 507 l-109 0 l-98 -357 l-117 357 l-79 0 l-118 -357 l-98 357 l-108 0 l157 -507 l88 0 l118 354 l119 -354 l87 0 l158 507 Z" /><glyph glyph-name="" unicode="x" d="M481 0 l-173 259 l166 248 l-123 0 l-99 -165 l-100 165 l-123 0 l167 -248 l-174 -259 l123 0 l107 173 l106 -173 l123 0 Z" /><glyph glyph-name="" unicode="y" d="M464 507 l-109 0 l-118 -357 l-121 357 l-108 0 l177 -483 l-28 -79 q-10 -30 -26 -42 q-16 -12 -47 -12 l-26 0 l0 -92 l41 0 q29 0 56 8 q27 8 48 29 q11 11 20 27 q10 15 17 36 l224 608 Z" /><glyph glyph-name="" unicode="z" d="M421 0 l0 91 l-254 0 l254 335 l0 81 l-364 0 l0 -91 l238 0 l-252 -335 l0 -81 l378 0 Z" /><glyph glyph-name="" unicode="{" d="M362 -74 l0 91 l-39 0 q-24 0 -37 3 q-14 3 -21 11 q-8 8 -12 23 q-3 15 -3 41 l0 161 q-1 48 -21 69 q-20 22 -45 31 q25 9 45 31 q20 21 21 69 l0 161 q0 26 3 41 q4 15 12 23 q7 8 21 11 q13 3 37 3 l39 0 l0 91 l-71 0 q-38 0 -64 -8 q-26 -9 -43 -26 q-19 -19 -28 -44 q-8 -25 -8 -61 l0 -167 q0 -42 -18 -60 q-8 -8 -20 -14 q-12 -5 -28 -5 l-37 0 l0 -90 l37 0 q16 0 28 -5 q12 -6 20 -14 q18 -18 18 -60 l0 -167 q0 -36 8 -61 q9 -25 28 -44 q17 -17 43 -26 q26 -8 64 -8 l71 0 Z" /><glyph glyph-name="" unicode="|" d="M220 -74 l0 860 l-102 0 l0 -860 l102 0 Z" /><glyph glyph-name="" unicode="}" d="M362 311 l0 90 l-36 0 q-16 0 -29 5 q-12 6 -20 14 q-18 18 -18 60 l0 167 q0 36 -8 61 q-9 25 -28 44 q-17 17 -43 26 q-26 8 -64 8 l-71 0 l0 -91 l39 0 q24 0 37 -3 q14 -3 21 -11 q8 -8 12 -23 q3 -15 3 -41 l0 -161 q1 -48 22 -69 q20 -22 45 -31 q-25 -9 -45 -31 q-21 -21 -22 -69 l0 -161 q0 -26 -3 -41 q-4 -15 -12 -23 q-7 -8 -21 -11 q-13 -3 -37 -3 l-39 0 l0 -91 l71 0 q38 0 64 8 q26 9 43 26 q19 19 28 44 q8 25 8 61 l0 167 q0 42 18 60 q8 8 20 14 q13 5 29 5 l36 0 Z" /><glyph glyph-name="" unicode="~" d="M531 280 l-65 64 q-28 -28 -46 -36 q-19 -9 -39 -8 q-21 0 -40 7 q-19 6 -40 17 q-30 15 -56 24 q-26 9 -55 9 q-38 1 -71 -17 q-33 -17 -76 -61 l64 -64 q28 28 46 36 q19 9 39 8 q21 0 40 -7 q18 -6 39 -17 q30 -15 57 -24 q26 -9 55 -9 q39 -1 72 17 q33 17 76 61 l0 0 Z" /><glyph glyph-name="" unicode="¡" d="M232 445 q-1 28 -19 46 q-18 18 -46 19 q-28 -1 -46 -19 q-18 -18 -19 -46 q1 -28 19 -45 q18 -18 46 -19 q28 1 46 19 q18 17 19 45 l0 0 ZM229 -205 l-24 500 l-77 0 l-23 -500 l124 0 Z" /><glyph glyph-name="" unicode="¢" d="M459 184 l-68 66 q-19 -22 -38 -33 q-20 -11 -44 -15 l0 328 q24 -4 44 -15 q19 -11 38 -33 l68 66 q-31 34 -65 51 q-34 18 -76 23 l0 90 l-80 0 l0 -91 q-82 -14 -132 -78 q-50 -65 -51 -177 q1 -112 51 -177 q50 -64 132 -78 l0 -111 l80 0 l0 110 q42 5 76 23 q34 18 65 51 l0 0 ZM247 204 q-18 4 -33 14 q-15 10 -26 25 q-16 21 -23 51 q-8 29 -8 72 q0 44 8 73 q8 29 24 50 q11 15 26 25 q14 10 32 14 l0 -324 Z" /><glyph glyph-name="" unicode="£" d="M516 0 l0 97 l-302 0 l0 216 l129 0 l0 78 l-129 0 l0 88 q1 70 35 106 q33 36 94 36 q38 0 61 -12 q22 -12 40 -31 l72 71 q-36 36 -77 53 q-42 16 -96 16 q-101 -1 -168 -60 q-67 -59 -70 -171 l0 -96 l-62 0 l0 -78 l62 0 l0 -313 l411 0 Z" /><glyph glyph-name="" unicode="&#x2044;" d="M307 712 l-82 0 l-335 -712 l82 0 l335 712 Z" /><glyph glyph-name="" unicode="¥" d="M538 712 l-117 0 l-148 -314 l-150 314 l-118 0 l147 -290 l-87 0 l0 -78 l127 0 l26 -51 l0 -52 l-153 0 l0 -78 l153 0 l0 -163 l108 0 l0 163 l153 0 l0 78 l-153 0 l0 52 l26 51 l127 0 l0 78 l-87 0 l146 290 Z" /><glyph glyph-name="" unicode="&#x192;" d="M385 630 l0 87 l-63 0 q-71 -2 -112 -43 q-41 -41 -51 -98 l-33 -185 l-96 0 l0 -78 l82 0 l-91 -518 l102 0 l91 518 l115 0 l0 78 l-101 0 l32 180 q5 28 21 43 q17 16 45 16 l59 0 Z" /><glyph glyph-name="" unicode="§" d="M472 264 q0 73 -36 119 q-37 46 -106 67 l-70 21 q-35 10 -55 30 q-20 20 -20 51 q0 37 23 57 q23 20 65 20 q39 0 63 -18 q24 -18 27 -58 l98 0 q-3 73 -51 119 q-48 45 -137 46 q-89 -2 -137 -50 q-48 -47 -49 -119 q1 -54 24 -85 q23 -32 60 -49 q-36 -18 -66 -57 q-29 -40 -31 -99 q0 -74 36 -120 q36 -45 105 -66 l70 -21 q41 -13 60 -37 q18 -23 18 -51 q0 -39 -24 -61 q-24 -23 -67 -23 q-42 0 -66 21 q-25 21 -28 58 l-100 0 q6 -87 62 -129 q56 -41 132 -41 q78 0 133 46 q56 46 58 132 q-1 56 -25 90 q-25 35 -63 51 q36 18 65 57 q30 40 32 99 l0 0 ZM372 261 q0 -30 -8 -48 q-9 -19 -21 -31 q-13 -14 -30 -21 q-18 -7 -40 -7 q-23 0 -40 7 q-18 7 -31 21 q-12 12 -20 31 q-8 19 -8 48 q0 28 7 47 q7 19 21 33 q13 14 31 21 q17 7 40 7 q22 0 40 -8 q17 -7 30 -20 q15 -14 22 -34 q7 -19 7 -46 l0 0 Z" /><glyph glyph-name="" unicode="¤" d="M597 81 l-74 74 q18 26 28 58 q10 31 10 66 q0 35 -10 66 q-10 32 -28 58 l74 73 l-67 67 l-74 -73 q-26 18 -58 28 q-31 9 -66 9 q-35 0 -66 -9 q-32 -10 -58 -28 l-73 73 l-67 -67 l73 -73 q-18 -26 -28 -58 q-10 -31 -10 -66 q0 -35 10 -66 q10 -32 28 -58 l-73 -74 l67 -67 l73 74 q26 -18 58 -28 q31 -10 66 -10 q35 0 66 10 q32 10 58 28 l74 -74 l67 67 ZM468 279 q-1 -58 -40 -96 q-38 -39 -96 -40 q-58 1 -96 40 q-39 38 -40 96 q1 58 40 96 q38 38 96 39 q58 -1 96 -39 q39 -38 40 -96 l0 0 Z" /><glyph glyph-name="" unicode="&#39;" d="M179 521 l0 191 l-101 0 l0 -191 l101 0 Z" /><glyph glyph-name="" unicode="&#x201c;" d="M381 608 l0 197 l-112 -93 l0 -104 l112 0 ZM190 608 l0 197 l-112 -93 l0 -104 l112 0 Z" /><glyph glyph-name="" unicode="«" d="M520 42 l0 123 l-108 107 l108 106 l0 123 l-230 -229 l230 -230 ZM267 42 l0 123 l-107 107 l107 106 l0 123 l-230 -229 l230 -230 Z" /><glyph glyph-name="" unicode="&#x2039;" d="M267 42 l0 123 l-107 107 l107 106 l0 123 l-230 -229 l230 -230 Z" /><glyph glyph-name="" unicode="­&#x203a;" d="M303 272 l-231 229 l0 -123 l108 -106 l-108 -107 l0 -123 l231 230 Z" /><glyph glyph-name="" unicode="&#xfb01;" d="M515 672 q-1 28 -19 47 q-19 18 -47 19 q-28 -1 -46 -19 q-18 -19 -19 -47 q1 -28 19 -46 q18 -19 46 -20 q28 1 47 20 q18 18 19 46 l0 0 ZM500 0 l0 498 l-102 0 l0 -498 l102 0 ZM296 420 l0 78 l-100 0 l0 73 q0 28 13 43 q14 16 42 16 l45 0 l0 87 l-63 0 q-71 -2 -105 -43 q-34 -41 -34 -98 l0 -78 l-59 0 l0 -78 l59 0 l0 -420 l102 0 l0 420 l100 0 Z" /><glyph glyph-name="" unicode="&#xfb02;" d="M599 0 l0 87 l-45 0 q-30 0 -43 15 q-12 15 -12 44 l0 566 l-102 0 l0 -572 q0 -58 33 -98 q34 -40 106 -42 l63 0 ZM297 420 l0 78 l-100 0 l0 73 q0 28 13 43 q14 16 42 16 l45 0 l0 87 l-63 0 q-71 -2 -105 -43 q-34 -41 -34 -98 l0 -78 l-58 0 l0 -78 l58 0 l0 -420 l102 0 l0 420 l100 0 Z" /><glyph glyph-name="" unicode="&#x2013;" d="M482 230 l0 95 l-431 0 l0 -95 l431 0 Z" /><glyph glyph-name="" unicode="&#x2020;" d="M526 427 l0 91 l-180 0 l0 194 l-102 0 l0 -194 l-179 0 l0 -91 l179 0 l0 -427 l102 0 l0 427 l180 0 Z" /><glyph glyph-name="" unicode="&#x2021;" d="M526 -11 l0 92 l-180 0 l0 346 l180 0 l0 91 l-180 0 l0 194 l-102 0 l0 -194 l-179 0 l0 -91 l179 0 l0 -346 l-179 0 l0 -92 l179 0 l0 -194 l102 0 l0 194 l180 0 Z" /><glyph glyph-name="" unicode="·" d="M215 276 q-1 31 -21 51 q-21 20 -52 21 q-31 -1 -51 -21 q-21 -20 -22 -51 q1 -31 22 -51 q20 -21 51 -22 q31 1 52 22 q20 20 21 51 l0 0 Z" /><glyph glyph-name="" unicode="¶" d="M544 -205 l0 917 l-281 0 q-104 -1 -164 -55 q-60 -53 -61 -144 q2 -81 56 -137 q54 -57 138 -59 l0 -522 l102 0 l0 820 l108 0 l0 -820 l102 0 Z" /><glyph glyph-name="" unicode="&#x2022;" d="M419 334 q-2 69 -48 115 q-46 46 -115 48 q-69 -2 -115 -48 q-46 -46 -48 -115 q2 -69 48 -115 q46 -46 115 -48 q69 2 115 48 q46 46 48 115 l0 0 Z" /><glyph glyph-name="" unicode="&#x201a;" d="M190 0 l0 105 l-112 0 l0 -197 l112 92 Z" /><glyph glyph-name="" unicode="&#x201e;" d="M381 0 l0 105 l-112 0 l0 -197 l112 92 ZM190 0 l0 105 l-112 0 l0 -197 l112 92 Z" /><glyph glyph-name="" unicode="&#x201d;" d="M381 607 l0 105 l-112 0 l0 -196 l112 91 ZM190 607 l0 105 l-112 0 l0 -196 l112 91 Z" /><glyph glyph-name="" unicode="»" d="M556 272 l-231 229 l0 -123 l107 -106 l-107 -107 l0 -123 l231 230 ZM303 272 l-231 229 l0 -123 l108 -106 l-108 -107 l0 -123 l231 230 Z" /><glyph glyph-name="" unicode="&#x2026;" d="M734 70 q-1 31 -21 51 q-21 20 -52 21 q-31 -1 -51 -21 q-21 -20 -22 -51 q1 -31 22 -51 q20 -21 51 -22 q31 1 52 22 q20 20 21 51 l0 0 ZM474 70 q-1 31 -21 51 q-21 20 -52 21 q-31 -1 -51 -21 q-20 -20 -21 -51 q1 -31 21 -51 q20 -21 51 -22 q31 1 52 22 q20 20 21 51 l0 0 ZM215 70 q-1 31 -21 51 q-21 20 -52 21 q-31 -1 -51 -21 q-21 -20 -22 -51 q1 -31 22 -51 q20 -21 51 -22 q31 1 52 22 q20 20 21 51 l0 0 Z" /><glyph glyph-name="" unicode="&#x2030;" d="M784 130 l0 101 q-1 65 -41 101 q-39 36 -99 36 q-60 0 -99 -36 q-40 -36 -41 -101 l0 -101 q1 -65 41 -101 q39 -35 99 -36 q60 1 99 36 q40 36 41 101 l0 0 ZM629 712 l-81 0 l-336 -712 l82 0 l335 712 ZM338 481 l0 101 q-1 65 -41 101 q-39 36 -99 36 q-60 0 -99 -36 q-40 -36 -41 -101 l0 -101 q1 -65 41 -100 q39 -36 99 -36 q60 0 99 36 q40 35 41 100 l0 0 ZM707 133 q0 -34 -15 -53 q-16 -19 -48 -19 q-32 0 -48 19 q-15 18 -15 53 l0 95 q0 35 15 53 q16 19 48 19 q32 0 48 -19 q15 -19 15 -53 l0 -95 ZM261 484 q0 -34 -15 -52 q-16 -19 -48 -19 q-32 0 -48 18 q-15 18 -15 53 l0 95 q0 35 15 53 q16 19 48 19 q32 0 48 -19 q15 -19 15 -53 l0 -95 ZM1138 130 l0 101 q-1 65 -41 101 q-39 36 -99 36 q-60 0 -99 -36 q-40 -36 -41 -101 l0 -101 q1 -65 41 -101 q39 -35 99 -36 q60 1 99 36 q40 36 41 101 l0 0 ZM1061 133 q0 -34 -15 -53 q-16 -19 -48 -19 q-32 0 -48 19 q-15 18 -15 53 l0 95 q0 35 15 53 q16 19 48 19 q32 0 48 -19 q15 -19 15 -53 l0 -95 Z" /><glyph glyph-name="" unicode="¿" d="M314 445 q-1 28 -19 46 q-18 18 -46 19 q-28 -1 -46 -19 q-18 -18 -19 -46 q1 -28 19 -45 q18 -18 46 -19 q28 1 46 19 q18 17 19 45 l0 0 ZM453 -19 l-102 0 q0 -42 -25 -70 q-25 -29 -72 -30 q-44 1 -70 29 q-26 27 -27 70 q0 21 8 40 q8 18 22 36 l78 105 q18 23 26 46 q8 23 8 53 l0 36 l-102 0 l0 -30 q0 -12 -5 -27 q-5 -15 -13 -27 l-77 -108 q-21 -27 -34 -57 q-13 -30 -13 -66 q2 -89 59 -140 q56 -51 140 -52 q87 1 142 54 q55 52 57 138 l0 0 Z" /><glyph glyph-name="" unicode="`" d="M302 599 l-75 162 l-113 0 l111 -162 l77 0 Z" /><glyph glyph-name="" unicode="´" d="M386 761 l-113 0 l-75 -162 l77 0 l111 162 Z" /><glyph glyph-name="" unicode="&#x2c6;" d="M422 599 l-129 161 l-86 0 l-129 -161 l85 0 l87 97 l87 -97 l85 0 Z" /><glyph glyph-name="" unicode="&#x2dc;" d="M419 667 l-48 47 q-20 -20 -34 -26 q-13 -6 -25 -5 q-15 0 -27 5 q-13 5 -28 14 q-20 12 -37 18 q-17 6 -38 6 q-23 1 -47 -11 q-24 -11 -57 -44 l48 -47 q20 20 33 26 q13 5 25 4 q15 0 28 -5 q14 -6 28 -14 q19 -11 36 -17 q18 -6 39 -6 q23 -1 47 11 q24 11 57 44 l0 0 Z" /><glyph glyph-name="" unicode="¯" d="M405 622 l0 73 l-310 0 l0 -73 l310 0 Z" /><glyph glyph-name="" unicode="&#x2d8;" d="M415 735 l-72 0 q-5 -35 -30 -53 q-25 -18 -62 -18 q-37 0 -62 18 q-25 18 -30 53 l-74 0 q6 -75 50 -110 q45 -35 116 -35 q71 0 115 35 q44 35 49 110 l0 0 Z" /><glyph glyph-name="" unicode="&#x2d9;" d="M304 620 l0 91 l-108 0 l0 -91 l108 0 Z" /><glyph glyph-name="" unicode="¨" d="M416 657 q-1 24 -16 40 q-16 15 -40 16 q-24 -1 -40 -16 q-16 -16 -17 -40 q1 -24 17 -40 q16 -16 40 -17 q24 1 40 17 q15 16 16 40 l0 0 ZM197 657 q-1 24 -17 40 q-16 15 -40 16 q-24 -1 -40 -16 q-15 -16 -16 -40 q1 -24 16 -40 q16 -16 40 -17 q24 1 40 17 q16 16 17 40 l0 0 Z" /><glyph glyph-name="" unicode="&#x2da;" d="M375 701 q-1 53 -37 88 q-35 36 -88 37 q-53 -1 -88 -37 q-36 -35 -37 -88 q1 -53 37 -88 q35 -36 88 -37 q53 1 88 37 q36 35 37 88 l0 0 ZM314 701 q-1 -27 -19 -45 q-18 -17 -45 -18 q-27 1 -45 18 q-18 18 -19 45 q1 27 19 45 q18 17 45 18 q27 -1 45 -18 q18 -18 19 -45 l0 0 Z" /><glyph glyph-name="" unicode="¸" d="M319 -64 l-82 0 l-70 -147 l101 0 l51 147 Z" /><glyph glyph-name="" unicode="&#x2dd;" d="M456 761 l-112 0 l-76 -162 l76 0 l112 162 ZM271 761 l-113 0 l-75 -162 l77 0 l111 162 Z" /><glyph glyph-name="" unicode="&#x2db;" d="M329 -211 l-70 147 l-82 0 l51 -147 l101 0 Z" /><glyph glyph-name="" unicode="&#x2c7;" d="M422 760 l-85 0 l-87 -97 l-87 97 l-85 0 l129 -161 l86 0 l129 161 Z" /><glyph glyph-name="" unicode="&#x2014;" d="M905 231 l0 97 l-838 0 l0 -97 l838 0 Z" /><glyph glyph-name="" unicode="Æ" d="M897 0 l0 97 l-347 0 l0 212 l296 0 l0 97 l-296 0 l0 209 l347 0 l0 97 l-518 0 l-374 -712 l118 0 l84 162 l235 0 l0 -162 l455 0 ZM442 254 l-188 0 l188 361 l0 -361 Z" /><glyph glyph-name="" unicode="ª" d="M379 307 l0 270 q0 68 -41 104 q-42 35 -125 35 q-50 1 -84 -12 q-34 -13 -62 -46 l55 -52 q16 21 36 30 q19 9 51 9 q46 0 67 -18 q20 -19 20 -56 l0 -28 l-105 0 q-69 -1 -104 -33 q-35 -32 -35 -84 q0 -26 8 -48 q8 -23 24 -39 q18 -19 45 -27 q26 -9 63 -9 q36 0 61 9 q24 9 45 31 l0 -36 l81 0 ZM296 453 q0 -22 -4 -36 q-4 -14 -13 -22 q-15 -14 -33 -18 q-19 -4 -42 -4 q-37 0 -54 14 q-17 14 -17 41 q0 27 17 42 q18 15 53 15 l93 0 l0 -32 Z" /><glyph glyph-name="" unicode="&#x141;" d="M557 0 l0 97 l-342 0 l0 238 l141 89 l0 91 l-141 -89 l0 286 l-108 0 l0 -354 l-69 -43 l0 -93 l69 44 l0 -266 l450 0 Z" /><glyph glyph-name="" unicode="Ø" d="M579 356 q2 101 -8 168 q-10 67 -60 118 q-3 3 -7 6 l52 108 l-83 0 l-30 -65 q-26 13 -57 20 q-30 7 -63 7 q-57 0 -104 -20 q-46 -19 -83 -56 q-50 -51 -61 -118 q-10 -67 -8 -168 q-2 -101 8 -168 q11 -67 61 -118 q3 -3 6 -6 l-51 -108 l82 0 l31 65 q26 -13 56 -20 q30 -7 63 -7 q57 0 104 20 q47 19 84 56 q50 51 60 118 q10 67 8 168 l0 0 ZM403 599 l-207 -433 q-12 24 -16 68 q-4 44 -4 122 q-1 104 8 150 q8 46 34 71 q19 20 46 32 q27 12 59 12 q23 0 43 -6 q20 -5 37 -16 l0 0 ZM471 356 q1 -104 -8 -150 q-8 -46 -34 -71 q-19 -20 -47 -32 q-27 -12 -59 -12 q-23 0 -42 6 q-20 5 -37 16 l207 433 q12 -24 16 -68 q4 -44 4 -122 l0 0 Z" /><glyph glyph-name="" unicode="&#x152;" d="M922 0 l0 96 l-343 0 q0 43 0 108 q0 65 0 108 l291 0 l0 94 l-291 0 q0 42 0 105 q0 63 0 105 l342 0 l0 96 l-450 0 l0 -58 q-30 34 -68 49 q-39 15 -82 15 q-57 0 -103 -19 q-45 -18 -82 -55 q-50 -50 -60 -118 q-11 -69 -9 -170 q-2 -101 9 -169 q10 -69 60 -119 q37 -37 82 -55 q46 -19 103 -19 q41 0 80 15 q40 15 70 49 l0 -58 l451 0 ZM471 356 q1 -104 -8 -150 q-8 -46 -34 -71 q-19 -20 -47 -32 q-27 -12 -59 -12 q-32 0 -59 12 q-27 12 -46 32 q-26 25 -34 71 q-9 46 -8 150 q-1 104 8 150 q8 46 34 71 q19 20 46 32 q27 12 59 12 q32 0 59 -12 q28 -12 47 -32 q26 -25 34 -71 q9 -46 8 -150 l0 0 Z" /><glyph glyph-name="" unicode="º" d="M398 510 q1 51 -9 90 q-10 38 -39 68 q-19 21 -50 34 q-30 14 -71 14 q-41 0 -71 -14 q-30 -13 -49 -34 q-29 -30 -39 -68 q-10 -39 -9 -90 q-1 -51 9 -90 q10 -39 39 -69 q19 -21 49 -34 q30 -14 71 -14 q41 0 71 14 q31 13 50 34 q29 30 39 69 q10 39 9 90 l0 0 ZM314 510 q1 -33 -4 -62 q-4 -29 -22 -48 q-23 -23 -59 -23 q-36 0 -58 23 q-18 19 -23 48 q-5 29 -4 62 q-1 33 4 61 q5 29 23 48 q22 23 58 23 q36 0 59 -23 q18 -19 22 -48 q5 -28 4 -61 l0 0 Z" /><glyph glyph-name="" unicode="æ" d="M782 224 l0 45 q-1 110 -56 176 q-56 66 -159 68 q-47 0 -85 -17 q-38 -17 -65 -50 q-23 33 -66 50 q-43 17 -106 17 q-62 1 -104 -15 q-43 -17 -78 -58 l67 -63 q20 27 45 38 q25 11 66 11 q59 0 85 -23 q26 -24 26 -72 l0 -36 l-134 0 q-87 -1 -131 -41 q-44 -40 -44 -105 q0 -32 10 -60 q10 -28 30 -49 q23 -23 56 -35 q32 -11 80 -11 q58 -1 102 16 q43 17 80 63 q31 -41 77 -60 q46 -19 102 -19 q65 0 109 20 q43 20 81 59 l-65 61 q-26 -27 -54 -39 q-27 -13 -69 -13 q-63 1 -96 38 q-33 38 -33 104 l329 0 ZM681 295 l-228 0 q1 23 4 38 q3 15 10 31 q12 29 38 46 q26 18 62 18 q36 0 63 -18 q26 -17 38 -46 q7 -16 10 -31 q2 -15 3 -38 l0 0 ZM352 183 q0 -27 -5 -45 q-6 -19 -17 -30 q-20 -19 -43 -24 q-23 -6 -52 -5 q-48 0 -70 19 q-23 18 -23 53 q0 35 23 54 q23 19 68 19 l119 0 l0 -41 Z" /><glyph glyph-name="" unicode="&#x131;" d="M183 0 l0 507 l-102 0 l0 -507 l102 0 Z" /><glyph glyph-name="" unicode="&#x142;" d="M294 0 l0 87 l-45 0 q-30 0 -43 15 q-12 15 -12 44 l0 237 l70 44 l0 86 l-70 -43 l0 242 l-102 0 l0 -304 l-59 -36 l0 -87 l59 36 l0 -181 q0 -58 33 -98 q34 -40 106 -42 l63 0 Z" /><glyph glyph-name="" unicode="ø" d="M480 254 q1 64 -12 113 q-13 49 -48 86 l59 98 l-69 0 l-37 -63 q-21 11 -47 18 q-26 7 -58 7 q-52 -1 -89 -17 q-37 -17 -62 -43 q-35 -37 -48 -86 q-13 -49 -12 -113 q-1 -64 12 -113 q12 -49 47 -86 l-58 -99 l69 0 l37 63 q21 -11 47 -18 q26 -7 57 -7 q52 1 90 17 q37 17 62 43 q35 37 48 87 q13 49 12 113 l0 0 ZM328 405 l-154 -260 q-9 23 -12 51 q-3 28 -3 58 q-1 42 6 79 q6 36 29 60 q29 29 74 29 q35 0 60 -17 l0 0 ZM378 254 q1 -42 -6 -78 q-6 -37 -29 -61 q-14 -14 -33 -22 q-19 -8 -42 -8 q-17 0 -32 5 q-15 5 -27 13 l154 260 q9 -23 12 -51 q3 -28 3 -58 l0 0 Z" /><glyph glyph-name="" unicode="&#x153;" d="M807 224 l0 45 q-1 110 -56 176 q-56 66 -159 68 q-53 0 -93 -21 q-41 -20 -67 -60 q-24 38 -66 59 q-42 22 -98 22 q-52 -1 -89 -17 q-37 -17 -62 -43 q-35 -37 -48 -86 q-13 -49 -12 -113 q-1 -64 12 -113 q13 -50 48 -87 q25 -26 62 -43 q37 -16 89 -17 q55 0 97 22 q42 21 66 58 q30 -41 74 -61 q45 -19 101 -19 q65 0 108 20 q43 20 81 59 l-65 61 q-26 -27 -54 -39 q-27 -13 -69 -13 q-63 1 -96 38 q-33 38 -33 104 l329 0 ZM706 295 l-228 0 q1 23 4 38 q3 15 10 31 q12 29 38 46 q26 18 62 18 q36 0 63 -18 q26 -17 38 -46 q7 -16 10 -31 q2 -15 3 -38 l0 0 ZM378 254 q1 -42 -6 -78 q-6 -37 -29 -61 q-14 -14 -33 -22 q-19 -8 -42 -8 q-23 0 -41 8 q-19 8 -33 22 q-23 24 -29 61 q-7 36 -6 78 q-1 42 6 79 q6 36 29 60 q29 29 74 29 q23 0 42 -7 q19 -8 33 -22 q23 -24 29 -60 q7 -37 6 -79 l0 0 Z" /><glyph glyph-name="" unicode="ß" d="M501 152 l0 165 q0 47 -15 73 q-16 26 -48 42 q28 17 45 45 q17 27 17 71 q-2 88 -59 130 q-57 41 -146 41 q-96 0 -154 -49 q-58 -49 -60 -148 l0 -522 l103 0 l0 516 q-1 52 24 82 q25 30 84 31 q28 0 48 -6 q20 -5 33 -18 q11 -11 18 -26 q7 -16 7 -34 q-1 -37 -21 -56 q-21 -19 -53 -19 l-31 0 l0 -81 l35 0 q17 0 30 -5 q13 -5 22 -14 q10 -9 14 -22 q4 -12 4 -31 l0 -156 q0 -20 -5 -34 q-5 -15 -16 -23 q-10 -9 -22 -13 q-12 -4 -30 -4 l-32 0 l0 -87 l53 0 q39 0 66 10 q27 10 48 29 q20 19 31 48 q10 29 10 65 l0 0 Z" /><glyph glyph-name="" unicode="Ð" d="M617 356 q2 102 -7 157 q-8 55 -47 104 q-36 47 -87 71 q-51 24 -114 24 l-250 0 l0 -311 l-74 0 l0 -83 l74 0 l0 -318 l247 0 q68 1 119 26 q51 25 85 68 q38 45 47 100 q9 56 7 162 l0 0 ZM509 353 q1 -96 -4 -133 q-6 -38 -23 -61 q-21 -31 -54 -47 q-33 -16 -79 -16 l-129 0 l0 222 l138 0 l0 83 l-138 0 l0 215 l129 0 q44 0 75 -15 q31 -15 54 -47 q20 -25 26 -66 q6 -41 5 -135 l0 0 Z" /><glyph glyph-name="" unicode="ð" d="M476 249 q1 67 -12 116 q-14 49 -51 116 l-51 94 l50 0 l0 72 l-87 0 l-39 70 l-108 0 l39 -70 l-78 0 l0 -72 l116 0 l45 -81 q-18 4 -38 5 q-20 0 -38 -3 q-32 -5 -59 -18 q-26 -13 -45 -33 q-35 -37 -47 -85 q-13 -48 -12 -111 q-1 -63 12 -111 q12 -48 47 -85 q24 -26 61 -42 q37 -16 87 -17 q50 1 88 17 q37 16 61 42 q35 37 48 85 q12 48 11 111 l0 0 ZM374 249 q1 -40 -5 -76 q-6 -35 -28 -59 q-14 -14 -32 -21 q-19 -8 -41 -8 q-22 0 -40 8 q-18 7 -32 21 q-22 24 -28 59 q-6 36 -5 76 q-1 40 5 76 q6 35 28 59 q14 14 32 21 q18 8 40 8 q22 0 41 -8 q18 -7 32 -21 q22 -24 28 -59 q6 -36 5 -76 l0 0 Z" /><glyph glyph-name="" unicode="&#x160;" d="M538 203 q0 46 -14 83 q-15 37 -44 63 q-22 20 -53 33 q-31 13 -80 20 l-81 12 q-25 4 -46 12 q-20 9 -34 21 q-14 13 -21 30 q-6 16 -6 36 q0 48 34 79 q33 31 96 32 q45 1 84 -12 q38 -12 71 -43 l69 68 q-45 42 -98 62 q-53 19 -123 19 q-112 -1 -174 -58 q-63 -57 -64 -151 q0 -87 52 -136 q23 -22 57 -36 q34 -15 78 -21 l84 -12 q31 -4 48 -11 q17 -7 30 -19 q14 -13 21 -32 q7 -19 7 -42 q0 -52 -39 -80 q-38 -29 -108 -29 q-54 -1 -99 15 q-44 15 -83 53 l-72 -71 q50 -51 111 -73 q61 -22 141 -21 q114 1 184 55 q70 55 72 154 l0 0 ZM463 942 l-85 0 l-87 -97 l-87 97 l-85 0 l129 -161 l86 0 l129 161 Z" /><glyph glyph-name="" unicode="&#x161;" d="M456 155 q-1 67 -40 102 q-39 35 -111 41 l-80 7 q-40 4 -55 20 q-16 15 -15 38 q0 29 23 47 q23 18 69 18 q36 0 69 -8 q32 -9 56 -29 l64 65 q-35 30 -83 44 q-48 13 -105 13 q-81 0 -135 -40 q-54 -40 -56 -115 q0 -66 39 -100 q39 -34 111 -40 l81 -7 q36 -3 52 -19 q16 -15 16 -41 q-1 -36 -32 -53 q-31 -17 -79 -17 q-38 -1 -76 11 q-39 11 -70 42 l-67 -67 q45 -43 98 -59 q53 -15 115 -14 q93 0 151 41 q58 40 60 120 l0 0 ZM420 760 l-85 0 l-87 -97 l-87 97 l-85 0 l129 -161 l86 0 l129 161 Z" /><glyph glyph-name="" unicode="Ý" d="M539 712 l-118 0 l-149 -313 l-149 313 l-118 0 l213 -419 l0 -293 l108 0 l0 293 l213 419 ZM407 943 l-113 0 l-75 -162 l77 0 l111 162 Z" /><glyph glyph-name="" unicode="ý" d="M464 507 l-109 0 l-118 -357 l-121 357 l-108 0 l177 -483 l-28 -79 q-10 -30 -26 -42 q-16 -12 -47 -12 l-26 0 l0 -92 l41 0 q29 0 56 8 q27 8 48 29 q11 11 20 27 q10 15 17 36 l224 608 ZM370 761 l-113 0 l-75 -162 l77 0 l111 162 Z" /><glyph glyph-name="" unicode="Þ" d="M591 359 q-1 95 -62 155 q-61 59 -166 61 l-162 0 l0 137 l-108 0 l0 -712 l108 0 l0 144 l162 0 q105 2 166 61 q61 59 62 154 l0 0 ZM482 359 q-1 -57 -35 -87 q-34 -31 -91 -31 l-155 0 l0 237 l155 0 q57 0 91 -31 q34 -31 35 -88 l0 0 Z" /><glyph glyph-name="" unicode="þ" d="M496 254 q1 59 -9 117 q-11 57 -48 97 q-21 21 -53 33 q-31 12 -70 12 q-40 1 -73 -12 q-32 -13 -60 -45 l0 256 l-102 0 l0 -917 l102 0 l0 257 q28 -32 60 -45 q33 -13 73 -13 q39 0 70 12 q32 12 53 33 q37 40 48 98 q10 58 9 117 l0 0 ZM394 254 q2 -70 -18 -118 q-20 -49 -87 -51 q-67 2 -87 51 q-21 48 -19 118 q-2 70 19 118 q20 48 87 50 q67 -2 87 -50 q20 -48 18 -118 l0 0 Z" /><glyph glyph-name="" unicode="&#x17d;" d="M504 0 l0 97 l-331 0 l331 527 l0 88 l-442 0 l0 -97 l315 0 l-329 -522 l0 -93 l456 0 ZM453 942 l-85 0 l-87 -97 l-87 97 l-85 0 l129 -161 l86 0 l129 161 Z" /><glyph glyph-name="" unicode="&#x17e;" d="M421 0 l0 91 l-254 0 l254 335 l0 81 l-364 0 l0 -91 l238 0 l-252 -335 l0 -81 l378 0 ZM411 760 l-85 0 l-87 -97 l-87 97 l-85 0 l129 -161 l86 0 l129 161 Z" /><glyph glyph-name="" unicode="½" d="M782 0 l0 69 l-167 0 l121 140 q22 25 34 46 q12 22 12 52 q-1 58 -37 91 q-36 32 -93 33 q-57 -1 -92 -33 q-36 -33 -37 -91 l76 0 q1 31 16 43 q16 13 37 12 q26 0 39 -15 q14 -15 14 -40 q0 -15 -5 -26 q-5 -12 -17 -26 l-160 -186 l0 -69 l259 0 ZM588 712 l-81 0 l-335 -712 l81 0 l335 712 ZM204 285 l0 427 l-77 0 l-87 -75 l0 -87 l87 76 l0 -341 l77 0 Z" /><glyph glyph-name="" unicode="¼" d="M768 61 l0 71 l-40 0 l0 83 l-74 0 l0 -83 l-91 0 l147 295 l-83 0 l-147 -295 l0 -71 l174 0 l0 -61 l74 0 l0 61 l40 0 ZM596 712 l-81 0 l-335 -712 l81 0 l335 712 ZM204 285 l0 427 l-77 0 l-87 -75 l0 -87 l87 76 l0 -341 l77 0 Z" /><glyph glyph-name="" unicode="¹" d="M204 285 l0 427 l-77 0 l-87 -75 l0 -87 l87 76 l0 -341 l77 0 Z" /><glyph glyph-name="" unicode="¾" d="M804 61 l0 71 l-40 0 l0 83 l-73 0 l0 -83 l-91 0 l147 295 l-84 0 l-146 -295 l0 -71 l174 0 l0 -61 l73 0 l0 61 l40 0 ZM638 712 l-81 0 l-335 -712 l81 0 l335 712 ZM317 408 q-1 39 -16 62 q-16 23 -40 35 q22 11 36 33 q14 22 14 56 q-1 55 -37 88 q-36 33 -93 34 q-55 0 -91 -32 q-36 -32 -39 -89 l76 0 q2 25 16 38 q14 14 38 14 q22 0 38 -14 q15 -14 16 -42 q0 -24 -14 -39 q-14 -15 -42 -16 l-11 0 l0 -66 l11 0 q30 0 46 -16 q15 -17 15 -44 q0 -29 -16 -45 q-16 -16 -42 -16 q-24 0 -41 14 q-17 14 -19 43 l-77 0 q3 -66 43 -96 q40 -30 94 -30 q56 0 95 32 q38 32 40 96 l0 0 Z" /><glyph glyph-name="" unicode="³" d="M317 408 q-1 39 -16 62 q-16 23 -40 35 q22 11 36 33 q14 22 14 56 q-1 55 -37 88 q-36 33 -93 34 q-55 0 -91 -32 q-36 -32 -39 -89 l76 0 q2 25 16 38 q14 14 38 14 q22 0 38 -14 q15 -14 16 -42 q0 -24 -14 -39 q-14 -15 -42 -16 l-11 0 l0 -66 l11 0 q30 0 46 -16 q15 -17 15 -44 q0 -29 -16 -45 q-16 -16 -42 -16 q-24 0 -41 14 q-17 14 -19 43 l-77 0 q3 -66 43 -96 q40 -30 94 -30 q56 0 95 32 q38 32 40 96 l0 0 Z" /><glyph glyph-name="" unicode="²" d="M305 285 l0 69 l-167 0 l121 140 q22 25 34 46 q12 22 12 52 q-1 58 -37 91 q-36 32 -93 33 q-57 -1 -93 -33 q-36 -33 -37 -91 l77 0 q1 31 16 43 q16 13 37 12 q26 0 39 -15 q14 -15 14 -40 q0 -15 -5 -26 q-5 -12 -17 -26 l-161 -186 l0 -69 l260 0 Z" /><glyph glyph-name="" unicode="¦" d="M220 436 l0 350 l-102 0 l0 -350 l102 0 ZM220 -74 l0 350 l-102 0 l0 -350 l102 0 Z" /><glyph glyph-name="" unicode="&#x2212;" d="M482 230 l0 95 l-431 0 l0 -95 l431 0 Z" /><glyph glyph-name="" unicode="×" d="M476 132 l-146 146 l146 146 l-64 64 l-146 -146 l-145 146 l-64 -64 l146 -146 l-146 -146 l64 -63 l145 145 l146 -145 l64 63 Z" /><glyph glyph-name="" unicode="Ä" d="M617 0 l-261 712 l-87 0 l-261 -712 l115 0 l49 143 l281 0 l49 -143 l115 0 ZM423 235 l-219 0 l111 316 l108 -316 ZM475 839 q-1 24 -16 40 q-16 15 -40 16 q-24 -1 -40 -16 q-16 -16 -17 -40 q1 -24 17 -40 q16 -16 40 -17 q24 1 40 17 q15 16 16 40 l0 0 ZM256 839 q-1 24 -17 40 q-16 15 -40 16 q-24 -1 -40 -16 q-15 -16 -16 -40 q1 -24 16 -40 q16 -16 40 -17 q24 1 40 17 q16 16 17 40 l0 0 Z" /><glyph glyph-name="" unicode="Å" d="M617 0 l-261 712 l-87 0 l-261 -712 l115 0 l49 143 l281 0 l49 -143 l115 0 ZM423 235 l-219 0 l111 316 l108 -316 ZM434 875 q-1 53 -37 88 q-35 36 -88 37 q-53 -1 -88 -37 q-36 -35 -37 -88 q1 -53 37 -88 q35 -36 88 -37 q53 1 88 37 q36 35 37 88 l0 0 ZM373 875 q-1 -27 -19 -45 q-18 -17 -45 -18 q-27 1 -45 18 q-18 18 -19 45 q1 27 19 45 q18 17 45 18 q27 -1 45 -18 q18 -18 19 -45 l0 0 Z" /><glyph glyph-name="" unicode="Ç" d="M522 78 l-72 73 q-27 -28 -55 -44 q-29 -16 -72 -16 q-32 0 -59 11 q-27 12 -46 32 q-26 25 -34 72 q-9 46 -8 150 q-1 104 8 150 q8 47 34 72 q19 20 46 32 q27 11 59 11 q43 0 72 -16 q28 -16 55 -44 l72 73 q-39 39 -86 62 q-47 22 -113 22 q-56 0 -103 -20 q-47 -19 -84 -56 q-50 -51 -61 -118 q-10 -67 -8 -168 q-2 -101 8 -168 q11 -67 61 -118 q37 -37 84 -56 q47 -20 103 -20 q66 0 113 23 q47 22 86 61 l0 0 ZM374 -64 l-82 0 l-70 -147 l101 0 l51 147 Z" /><glyph glyph-name="" unicode="É" d="M548 0 l0 97 l-347 0 l0 214 l296 0 l0 96 l-296 0 l0 208 l347 0 l0 97 l-455 0 l0 -712 l455 0 ZM447 943 l-113 0 l-75 -162 l77 0 l111 162 Z" /><glyph glyph-name="" unicode="Ñ" d="M629 0 l0 712 l-108 0 l0 -500 l-329 500 l-99 0 l0 -712 l108 0 l0 501 l329 -501 l99 0 ZM530 849 l-48 47 q-20 -20 -34 -26 q-13 -6 -25 -5 q-15 0 -27 5 q-13 5 -28 14 q-20 12 -37 18 q-17 6 -38 6 q-23 1 -47 -11 q-24 -11 -57 -44 l48 -47 q20 20 33 26 q13 5 25 4 q15 0 28 -5 q14 -6 28 -14 q19 -11 36 -17 q18 -6 39 -6 q23 -1 47 11 q24 11 57 44 l0 0 Z" /><glyph glyph-name="" unicode="Ö" d="M579 356 q2 101 -8 168 q-10 67 -60 118 q-37 37 -84 56 q-47 20 -104 20 q-57 0 -104 -20 q-46 -19 -83 -56 q-50 -51 -61 -118 q-10 -67 -8 -168 q-2 -101 8 -168 q11 -67 61 -118 q37 -37 83 -56 q47 -20 104 -20 q57 0 104 20 q47 19 84 56 q50 51 60 118 q10 67 8 168 l0 0 ZM471 356 q1 -104 -8 -150 q-8 -46 -34 -71 q-19 -20 -47 -32 q-27 -12 -59 -12 q-32 0 -59 12 q-28 12 -47 32 q-26 25 -34 71 q-9 46 -8 150 q-1 104 8 150 q8 46 34 71 q19 20 47 32 q27 12 59 12 q32 0 59 -12 q28 -12 47 -32 q26 -25 34 -71 q9 -46 8 -150 l0 0 ZM489 839 q-1 24 -16 40 q-16 15 -40 16 q-24 -1 -40 -16 q-16 -16 -17 -40 q1 -24 17 -40 q16 -16 40 -17 q24 1 40 17 q15 16 16 40 l0 0 ZM270 839 q-1 24 -17 40 q-16 15 -40 16 q-24 -1 -40 -16 q-15 -16 -16 -40 q1 -24 16 -40 q16 -16 40 -17 q24 1 40 17 q16 16 17 40 l0 0 Z" /><glyph glyph-name="" unicode="Ü" d="M593 240 l0 472 l-108 0 l0 -467 q-1 -72 -41 -113 q-39 -40 -107 -41 q-68 1 -107 41 q-39 41 -40 113 l0 467 l-108 0 l0 -472 q2 -112 73 -178 q71 -66 182 -68 q111 2 182 68 q72 66 74 178 l0 0 ZM504 839 q-1 24 -16 40 q-16 15 -40 16 q-24 -1 -40 -16 q-16 -16 -17 -40 q1 -24 17 -40 q16 -16 40 -17 q24 1 40 17 q15 16 16 40 l0 0 ZM285 839 q-1 24 -17 40 q-16 15 -40 16 q-24 -1 -40 -16 q-15 -16 -16 -40 q1 -24 16 -40 q16 -16 40 -17 q24 1 40 17 q16 16 17 40 l0 0 Z" /><glyph glyph-name="" unicode="á" d="M454 0 l0 339 q0 86 -52 130 q-53 44 -157 44 q-62 1 -104 -15 q-43 -17 -78 -58 l67 -63 q20 27 45 38 q25 11 66 11 q59 0 85 -23 q26 -24 26 -72 l0 -36 l-134 0 q-87 -1 -131 -41 q-44 -40 -44 -105 q0 -32 10 -60 q10 -28 30 -49 q23 -23 56 -35 q33 -11 80 -11 q46 0 77 12 q31 12 58 40 l0 -46 l100 0 ZM352 183 q0 -27 -5 -45 q-6 -19 -17 -30 q-20 -19 -43 -24 q-23 -6 -52 -5 q-48 0 -70 19 q-23 18 -23 53 q0 35 23 54 q23 19 68 19 l119 0 l0 -41 ZM393 761 l-113 0 l-75 -162 l77 0 l111 162 Z" /><glyph glyph-name="" unicode="à" d="M454 0 l0 339 q0 86 -52 130 q-53 44 -157 44 q-62 1 -104 -15 q-43 -17 -78 -58 l67 -63 q20 27 45 38 q25 11 66 11 q59 0 85 -23 q26 -24 26 -72 l0 -36 l-134 0 q-87 -1 -131 -41 q-44 -40 -44 -105 q0 -32 10 -60 q10 -28 30 -49 q23 -23 56 -35 q33 -11 80 -11 q46 0 77 12 q31 12 58 40 l0 -46 l100 0 ZM352 183 q0 -27 -5 -45 q-6 -19 -17 -30 q-20 -19 -43 -24 q-23 -6 -52 -5 q-48 0 -70 19 q-23 18 -23 53 q0 35 23 54 q23 19 68 19 l119 0 l0 -41 ZM309 599 l-75 162 l-113 0 l111 -162 l77 0 Z" /><glyph glyph-name="" unicode="â" d="M454 0 l0 339 q0 86 -52 130 q-53 44 -157 44 q-62 1 -104 -15 q-43 -17 -78 -58 l67 -63 q20 27 45 38 q25 11 66 11 q59 0 85 -23 q26 -24 26 -72 l0 -36 l-134 0 q-87 -1 -131 -41 q-44 -40 -44 -105 q0 -32 10 -60 q10 -28 30 -49 q23 -23 56 -35 q33 -11 80 -11 q46 0 77 12 q31 12 58 40 l0 -46 l100 0 ZM352 183 q0 -27 -5 -45 q-6 -19 -17 -30 q-20 -19 -43 -24 q-23 -6 -52 -5 q-48 0 -70 19 q-23 18 -23 53 q0 35 23 54 q23 19 68 19 l119 0 l0 -41 ZM429 599 l-129 161 l-86 0 l-129 -161 l85 0 l87 97 l87 -97 l85 0 Z" /><glyph glyph-name="" unicode="ä" d="M454 0 l0 339 q0 86 -52 130 q-53 44 -157 44 q-62 1 -104 -15 q-43 -17 -78 -58 l67 -63 q20 27 45 38 q25 11 66 11 q59 0 85 -23 q26 -24 26 -72 l0 -36 l-134 0 q-87 -1 -131 -41 q-44 -40 -44 -105 q0 -32 10 -60 q10 -28 30 -49 q23 -23 56 -35 q33 -11 80 -11 q46 0 77 12 q31 12 58 40 l0 -46 l100 0 ZM352 183 q0 -27 -5 -45 q-6 -19 -17 -30 q-20 -19 -43 -24 q-23 -6 -52 -5 q-48 0 -70 19 q-23 18 -23 53 q0 35 23 54 q23 19 68 19 l119 0 l0 -41 ZM423 657 q-1 24 -16 40 q-16 15 -40 16 q-24 -1 -40 -16 q-16 -16 -17 -40 q1 -24 17 -40 q16 -16 40 -17 q24 1 40 17 q15 16 16 40 l0 0 ZM204 657 q-1 24 -17 40 q-16 15 -40 16 q-24 -1 -40 -16 q-15 -16 -16 -40 q1 -24 16 -40 q16 -16 40 -17 q24 1 40 17 q16 16 17 40 l0 0 Z" /><glyph glyph-name="" unicode="ã" d="M454 0 l0 339 q0 86 -52 130 q-53 44 -157 44 q-62 1 -104 -15 q-43 -17 -78 -58 l67 -63 q20 27 45 38 q25 11 66 11 q59 0 85 -23 q26 -24 26 -72 l0 -36 l-134 0 q-87 -1 -131 -41 q-44 -40 -44 -105 q0 -32 10 -60 q10 -28 30 -49 q23 -23 56 -35 q33 -11 80 -11 q46 0 77 12 q31 12 58 40 l0 -46 l100 0 ZM352 183 q0 -27 -5 -45 q-6 -19 -17 -30 q-20 -19 -43 -24 q-23 -6 -52 -5 q-48 0 -70 19 q-23 18 -23 53 q0 35 23 54 q23 19 68 19 l119 0 l0 -41 ZM426 667 l-48 47 q-20 -20 -34 -26 q-13 -6 -25 -5 q-15 0 -27 5 q-13 5 -28 14 q-20 12 -37 18 q-17 6 -38 6 q-23 1 -47 -11 q-24 -11 -57 -44 l48 -47 q20 20 33 26 q13 5 25 4 q15 0 28 -5 q14 -6 28 -14 q19 -11 36 -17 q18 -6 39 -6 q23 -1 47 11 q24 11 57 44 l0 0 Z" /><glyph glyph-name="" unicode="å" d="M454 0 l0 339 q0 86 -52 130 q-53 44 -157 44 q-62 1 -104 -15 q-43 -17 -78 -58 l67 -63 q20 27 45 38 q25 11 66 11 q59 0 85 -23 q26 -24 26 -72 l0 -36 l-134 0 q-87 -1 -131 -41 q-44 -40 -44 -105 q0 -32 10 -60 q10 -28 30 -49 q23 -23 56 -35 q33 -11 80 -11 q46 0 77 12 q31 12 58 40 l0 -46 l100 0 ZM352 183 q0 -27 -5 -45 q-6 -19 -17 -30 q-20 -19 -43 -24 q-23 -6 -52 -5 q-48 0 -70 19 q-23 18 -23 53 q0 35 23 54 q23 19 68 19 l119 0 l0 -41 ZM382 701 q-1 53 -37 88 q-35 36 -88 37 q-53 -1 -88 -37 q-36 -35 -37 -88 q1 -53 37 -88 q35 -36 88 -37 q53 1 88 37 q36 35 37 88 l0 0 ZM321 701 q-1 -27 -19 -45 q-18 -17 -45 -18 q-27 1 -45 18 q-18 18 -19 45 q1 27 19 45 q18 17 45 18 q27 -1 45 -18 q18 -18 19 -45 l0 0 Z" /><glyph glyph-name="" unicode="ç" d="M448 66 l-70 67 q-23 -26 -45 -37 q-23 -11 -52 -11 q-29 0 -53 12 q-24 11 -41 33 q-16 21 -23 50 q-7 30 -7 74 q0 44 7 73 q7 29 23 50 q17 22 41 33 q24 12 53 12 q29 0 52 -11 q22 -11 45 -37 l70 68 q-35 38 -75 55 q-40 16 -92 16 q-89 2 -156 -58 q-67 -60 -70 -201 q3 -141 70 -201 q67 -61 156 -59 q52 0 92 17 q40 17 75 55 l0 0 ZM319 -64 l-82 0 l-70 -147 l101 0 l51 147 Z" /><glyph glyph-name="" unicode="é" d="M485 224 l0 45 q-1 110 -56 176 q-56 66 -159 68 q-99 -1 -156 -68 q-58 -67 -59 -191 q2 -143 66 -202 q64 -60 162 -58 q65 0 109 20 q43 20 81 59 l-65 61 q-26 -27 -54 -39 q-27 -13 -69 -13 q-63 1 -96 38 q-33 38 -33 104 l329 0 ZM384 295 l-228 0 q1 23 3 38 q3 15 10 31 q12 29 39 46 q26 18 62 18 q36 0 62 -18 q26 -17 38 -46 q7 -16 10 -31 q3 -15 4 -38 l0 0 ZM409 761 l-113 0 l-75 -162 l77 0 l111 162 Z" /><glyph glyph-name="" unicode="è" d="M485 224 l0 45 q-1 110 -56 176 q-56 66 -159 68 q-99 -1 -156 -68 q-58 -67 -59 -191 q2 -143 66 -202 q64 -60 162 -58 q65 0 109 20 q43 20 81 59 l-65 61 q-26 -27 -54 -39 q-27 -13 -69 -13 q-63 1 -96 38 q-33 38 -33 104 l329 0 ZM384 295 l-228 0 q1 23 3 38 q3 15 10 31 q12 29 39 46 q26 18 62 18 q36 0 62 -18 q26 -17 38 -46 q7 -16 10 -31 q3 -15 4 -38 l0 0 ZM325 599 l-75 162 l-113 0 l111 -162 l77 0 Z" /><glyph glyph-name="" unicode="ê" d="M485 224 l0 45 q-1 110 -56 176 q-56 66 -159 68 q-99 -1 -156 -68 q-58 -67 -59 -191 q2 -143 66 -202 q64 -60 162 -58 q65 0 109 20 q43 20 81 59 l-65 61 q-26 -27 -54 -39 q-27 -13 -69 -13 q-63 1 -96 38 q-33 38 -33 104 l329 0 ZM384 295 l-228 0 q1 23 3 38 q3 15 10 31 q12 29 39 46 q26 18 62 18 q36 0 62 -18 q26 -17 38 -46 q7 -16 10 -31 q3 -15 4 -38 l0 0 ZM445 599 l-129 161 l-86 0 l-129 -161 l85 0 l87 97 l87 -97 l85 0 Z" /><glyph glyph-name="" unicode="ë" d="M485 224 l0 45 q-1 110 -56 176 q-56 66 -159 68 q-99 -1 -156 -68 q-58 -67 -59 -191 q2 -143 66 -202 q64 -60 162 -58 q65 0 109 20 q43 20 81 59 l-65 61 q-26 -27 -54 -39 q-27 -13 -69 -13 q-63 1 -96 38 q-33 38 -33 104 l329 0 ZM384 295 l-228 0 q1 23 3 38 q3 15 10 31 q12 29 39 46 q26 18 62 18 q36 0 62 -18 q26 -17 38 -46 q7 -16 10 -31 q3 -15 4 -38 l0 0 ZM439 657 q-1 24 -16 40 q-16 15 -40 16 q-24 -1 -40 -16 q-16 -16 -17 -40 q1 -24 17 -40 q16 -16 40 -17 q24 1 40 17 q15 16 16 40 l0 0 ZM220 657 q-1 24 -17 40 q-16 15 -40 16 q-24 -1 -40 -16 q-15 -16 -16 -40 q1 -24 16 -40 q16 -16 40 -17 q24 1 40 17 q16 16 17 40 l0 0 Z" /><glyph glyph-name="" unicode="í" d="M183 0 l0 507 l-102 0 l0 -507 l102 0 ZM269 761 l-113 0 l-75 -162 l77 0 l111 162 Z" /><glyph glyph-name="" unicode="ì" d="M183 0 l0 507 l-102 0 l0 -507 l102 0 ZM269 599 l-75 162 l-113 0 l111 -162 l77 0 Z" /><glyph glyph-name="" unicode="î" d="M183 0 l0 507 l-102 0 l0 -507 l102 0 ZM425 599 l-129 161 l-86 0 l-129 -161 l85 0 l87 97 l87 -97 l85 0 Z" /><glyph glyph-name="" unicode="ï" d="M183 0 l0 507 l-102 0 l0 -507 l102 0 ZM413 657 q-1 24 -16 40 q-16 15 -40 16 q-24 -1 -40 -16 q-16 -16 -17 -40 q1 -24 17 -40 q16 -16 40 -17 q24 1 40 17 q15 16 16 40 l0 0 ZM194 657 q-1 24 -17 40 q-16 15 -40 16 q-24 -1 -40 -16 q-15 -16 -16 -40 q1 -24 16 -40 q16 -16 40 -17 q24 1 40 17 q16 16 17 40 l0 0 Z" /><glyph glyph-name="" unicode="ñ" d="M492 0 l0 324 q0 43 -11 79 q-11 35 -40 64 q-23 22 -54 34 q-32 12 -71 12 q-39 0 -73 -14 q-35 -14 -62 -43 l0 51 l-100 0 l0 -507 l102 0 l0 309 q1 58 31 86 q30 27 74 27 q44 0 72 -27 q29 -27 30 -86 l0 -309 l102 0 ZM456 667 l-48 47 q-20 -20 -34 -26 q-13 -6 -25 -5 q-15 0 -27 5 q-13 5 -28 14 q-20 12 -37 18 q-17 6 -38 6 q-23 1 -47 -11 q-24 -11 -57 -44 l48 -47 q20 20 33 26 q13 5 25 4 q15 0 28 -5 q14 -6 28 -14 q19 -11 36 -17 q18 -6 39 -6 q23 -1 47 11 q24 11 57 44 l0 0 Z" /><glyph glyph-name="" unicode="ó" d="M480 254 q1 64 -12 113 q-13 49 -48 86 q-25 26 -62 43 q-38 16 -90 17 q-52 -1 -89 -17 q-37 -17 -62 -43 q-35 -37 -48 -86 q-13 -49 -12 -113 q-1 -64 12 -113 q13 -50 48 -87 q25 -26 62 -43 q37 -16 89 -17 q52 1 90 17 q37 17 62 43 q35 37 48 87 q13 49 12 113 l0 0 ZM378 254 q1 -42 -6 -78 q-6 -37 -29 -61 q-14 -14 -33 -22 q-19 -8 -42 -8 q-23 0 -41 8 q-19 8 -33 22 q-23 24 -29 61 q-7 36 -6 78 q-1 42 6 79 q6 36 29 60 q29 29 74 29 q23 0 42 -7 q19 -8 33 -22 q23 -24 29 -60 q7 -37 6 -79 l0 0 ZM404 761 l-113 0 l-75 -162 l77 0 l111 162 Z" /><glyph glyph-name="" unicode="ò" d="M480 254 q1 64 -12 113 q-13 49 -48 86 q-25 26 -62 43 q-38 16 -90 17 q-52 -1 -89 -17 q-37 -17 -62 -43 q-35 -37 -48 -86 q-13 -49 -12 -113 q-1 -64 12 -113 q13 -50 48 -87 q25 -26 62 -43 q37 -16 89 -17 q52 1 90 17 q37 17 62 43 q35 37 48 87 q13 49 12 113 l0 0 ZM378 254 q1 -42 -6 -78 q-6 -37 -29 -61 q-14 -14 -33 -22 q-19 -8 -42 -8 q-23 0 -41 8 q-19 8 -33 22 q-23 24 -29 61 q-7 36 -6 78 q-1 42 6 79 q6 36 29 60 q29 29 74 29 q23 0 42 -7 q19 -8 33 -22 q23 -24 29 -60 q7 -37 6 -79 l0 0 ZM313 599 l-75 162 l-113 0 l111 -162 l77 0 Z" /><glyph glyph-name="" unicode="ô" d="M480 254 q1 64 -12 113 q-13 49 -48 86 q-25 26 -62 43 q-38 16 -90 17 q-52 -1 -89 -17 q-37 -17 -62 -43 q-35 -37 -48 -86 q-13 -49 -12 -113 q-1 -64 12 -113 q13 -50 48 -87 q25 -26 62 -43 q37 -16 89 -17 q52 1 90 17 q37 17 62 43 q35 37 48 87 q13 49 12 113 l0 0 ZM378 254 q1 -42 -6 -78 q-6 -37 -29 -61 q-14 -14 -33 -22 q-19 -8 -42 -8 q-23 0 -41 8 q-19 8 -33 22 q-23 24 -29 61 q-7 36 -6 78 q-1 42 6 79 q6 36 29 60 q29 29 74 29 q23 0 42 -7 q19 -8 33 -22 q23 -24 29 -60 q7 -37 6 -79 l0 0 ZM440 599 l-129 161 l-86 0 l-129 -161 l85 0 l87 97 l87 -97 l85 0 Z" /><glyph glyph-name="" unicode="ö" d="M480 254 q1 64 -12 113 q-13 49 -48 86 q-25 26 -62 43 q-38 16 -90 17 q-52 -1 -89 -17 q-37 -17 -62 -43 q-35 -37 -48 -86 q-13 -49 -12 -113 q-1 -64 12 -113 q13 -50 48 -87 q25 -26 62 -43 q37 -16 89 -17 q52 1 90 17 q37 17 62 43 q35 37 48 87 q13 49 12 113 l0 0 ZM378 254 q1 -42 -6 -78 q-6 -37 -29 -61 q-14 -14 -33 -22 q-19 -8 -42 -8 q-23 0 -41 8 q-19 8 -33 22 q-23 24 -29 61 q-7 36 -6 78 q-1 42 6 79 q6 36 29 60 q29 29 74 29 q23 0 42 -7 q19 -8 33 -22 q23 -24 29 -60 q7 -37 6 -79 l0 0 ZM434 657 q-1 24 -16 40 q-16 15 -40 16 q-24 -1 -40 -16 q-16 -16 -17 -40 q1 -24 17 -40 q16 -16 40 -17 q24 1 40 17 q15 16 16 40 l0 0 ZM215 657 q-1 24 -17 40 q-16 15 -40 16 q-24 -1 -40 -16 q-15 -16 -16 -40 q1 -24 16 -40 q16 -16 40 -17 q24 1 40 17 q16 16 17 40 l0 0 Z" /><glyph glyph-name="" unicode="õ" d="M480 254 q1 64 -12 113 q-13 49 -48 86 q-25 26 -62 43 q-38 16 -90 17 q-52 -1 -89 -17 q-37 -17 -62 -43 q-35 -37 -48 -86 q-13 -49 -12 -113 q-1 -64 12 -113 q13 -50 48 -87 q25 -26 62 -43 q37 -16 89 -17 q52 1 90 17 q37 17 62 43 q35 37 48 87 q13 49 12 113 l0 0 ZM378 254 q1 -42 -6 -78 q-6 -37 -29 -61 q-14 -14 -33 -22 q-19 -8 -42 -8 q-23 0 -41 8 q-19 8 -33 22 q-23 24 -29 61 q-7 36 -6 78 q-1 42 6 79 q6 36 29 60 q29 29 74 29 q23 0 42 -7 q19 -8 33 -22 q23 -24 29 -60 q7 -37 6 -79 l0 0 ZM437 667 l-48 47 q-20 -20 -34 -26 q-13 -6 -25 -5 q-15 0 -27 5 q-13 5 -28 14 q-20 12 -37 18 q-17 6 -38 6 q-23 1 -47 -11 q-24 -11 -57 -44 l48 -47 q20 20 33 26 q13 5 25 4 q15 0 28 -5 q14 -6 28 -14 q19 -11 36 -17 q18 -6 39 -6 q23 -1 47 11 q24 11 57 44 l0 0 Z" /><glyph glyph-name="" unicode="ú" d="M487 0 l0 507 l-102 0 l0 -309 q-1 -58 -31 -86 q-30 -27 -74 -27 q-44 0 -72 27 q-29 27 -30 86 l0 309 l-102 0 l0 -324 q0 -43 11 -79 q11 -35 40 -64 q23 -22 54 -34 q32 -12 71 -12 q39 0 74 14 q34 15 61 43 l0 -51 l100 0 ZM417 761 l-113 0 l-75 -162 l77 0 l111 162 Z" /><glyph glyph-name="" unicode="ù" d="M487 0 l0 507 l-102 0 l0 -309 q-1 -58 -31 -86 q-30 -27 -74 -27 q-44 0 -72 27 q-29 27 -30 86 l0 309 l-102 0 l0 -324 q0 -43 11 -79 q11 -35 40 -64 q23 -22 54 -34 q32 -12 71 -12 q39 0 74 14 q34 15 61 43 l0 -51 l100 0 ZM333 599 l-75 162 l-113 0 l111 -162 l77 0 Z" /><glyph glyph-name="" unicode="û" d="M487 0 l0 507 l-102 0 l0 -309 q-1 -58 -31 -86 q-30 -27 -74 -27 q-44 0 -72 27 q-29 27 -30 86 l0 309 l-102 0 l0 -324 q0 -43 11 -79 q11 -35 40 -64 q23 -22 54 -34 q32 -12 71 -12 q39 0 74 14 q34 15 61 43 l0 -51 l100 0 ZM453 599 l-129 161 l-86 0 l-129 -161 l85 0 l87 97 l87 -97 l85 0 Z" /><glyph glyph-name="" unicode="ü" d="M487 0 l0 507 l-102 0 l0 -309 q-1 -58 -31 -86 q-30 -27 -74 -27 q-44 0 -72 27 q-29 27 -30 86 l0 309 l-102 0 l0 -324 q0 -43 11 -79 q11 -35 40 -64 q23 -22 54 -34 q32 -12 71 -12 q39 0 74 14 q34 15 61 43 l0 -51 l100 0 ZM447 657 q-1 24 -16 40 q-16 15 -40 16 q-24 -1 -40 -16 q-16 -16 -17 -40 q1 -24 17 -40 q16 -16 40 -17 q24 1 40 17 q15 16 16 40 l0 0 ZM228 657 q-1 24 -17 40 q-16 15 -40 16 q-24 -1 -40 -16 q-15 -16 -16 -40 q1 -24 16 -40 q16 -16 40 -17 q24 1 40 17 q16 16 17 40 l0 0 Z" /><glyph glyph-name="" unicode="°" d="M410 549 q-2 74 -51 124 q-50 49 -124 51 q-74 -2 -123 -51 q-49 -50 -51 -124 q2 -74 51 -123 q49 -49 123 -51 q74 2 124 51 q49 49 51 123 l0 0 ZM326 549 q-1 -40 -26 -65 q-26 -26 -65 -27 q-39 1 -64 27 q-25 25 -26 65 q1 40 26 66 q25 26 64 27 q39 -1 65 -27 q25 -26 26 -66 l0 0 Z" /><glyph glyph-name="" unicode="®" d="M793 356 q-4 154 -106 256 q-102 102 -256 106 q-154 -4 -256 -106 q-102 -102 -106 -256 q4 -154 106 -256 q102 -102 256 -106 q154 4 256 106 q102 102 106 256 l0 0 ZM720 356 q-3 -127 -84 -209 q-81 -83 -205 -86 q-124 3 -206 86 q-81 82 -84 209 q3 127 84 209 q82 83 206 86 q124 -3 205 -86 q81 -82 84 -209 l0 0 ZM588 161 l-87 165 q33 11 55 38 q21 27 22 68 q-1 50 -35 84 q-35 35 -91 36 l-147 0 l0 -391 l72 0 l0 155 l50 0 l80 -155 l81 0 ZM507 432 q0 -25 -18 -42 q-17 -16 -46 -17 l-66 0 l0 118 l66 0 q29 -1 46 -17 q18 -17 18 -42 l0 0 Z" /><glyph glyph-name="" unicode="©" d="M793 356 q-4 154 -106 256 q-102 102 -256 106 q-154 -4 -256 -106 q-102 -102 -106 -256 q4 -154 106 -256 q102 -102 256 -106 q154 4 256 106 q102 102 106 256 l0 0 ZM720 356 q-3 -127 -84 -209 q-81 -82 -205 -85 q-124 3 -205 85 q-81 82 -84 209 q3 127 84 209 q81 82 205 85 q124 -3 205 -85 q81 -82 84 -209 l0 0 ZM568 208 l-46 47 q-22 -19 -41 -27 q-19 -8 -44 -8 q-57 1 -82 39 q-26 37 -26 97 q0 60 26 97 q25 38 82 39 q25 0 44 -8 q19 -8 41 -27 l46 47 q-29 26 -59 39 q-31 13 -72 13 q-82 -1 -130 -54 q-48 -53 -49 -146 q1 -93 49 -146 q48 -53 130 -54 q41 0 72 13 q31 13 59 39 l0 0 Z" /><glyph glyph-name="" unicode="&#x2122;" d="M822 285 l0 427 l-77 0 l-126 -243 l-125 243 l-77 0 l0 -427 l77 0 l0 279 l90 -179 l71 0 l90 179 l0 -279 l77 0 ZM346 643 l0 69 l-305 0 l0 -69 l114 0 l0 -358 l76 0 l0 358 l115 0 Z" /><glyph glyph-name="" unicode="&#x2260;" d="M520 133 l0 95 l-226 0 l88 99 l138 0 l0 95 l-61 0 l61 69 l-63 51 l-104 -120 l-302 0 l0 -95 l226 0 l-88 -99 l-138 0 l0 -95 l61 0 l-61 -69 l63 -51 l103 120 l303 0 Z" /><glyph glyph-name="" unicode="&#x221e;" d="M769 276 q-1 75 -46 124 q-45 49 -129 51 q-53 0 -95 -26 q-43 -25 -84 -74 q-41 49 -85 74 q-43 26 -94 26 q-84 -2 -129 -51 q-45 -49 -46 -124 q1 -75 46 -124 q45 -49 129 -51 q51 0 95 26 q43 25 84 74 q41 -49 84 -74 q43 -25 95 -25 q84 2 129 50 q45 49 46 124 l0 0 ZM671 274 q-1 -36 -23 -57 q-22 -22 -56 -22 q-31 1 -56 23 q-25 22 -53 56 q28 34 53 56 q25 21 56 22 q34 0 56 -21 q22 -21 23 -57 l0 0 ZM347 274 q-28 -34 -53 -56 q-26 -22 -57 -23 q-34 0 -55 22 q-22 21 -23 57 q1 36 23 58 q21 21 55 21 q31 -1 57 -23 q25 -22 53 -56 l0 0 Z" /><glyph glyph-name="" unicode="±" d="M482 316 l0 95 l-168 0 l0 168 l-95 0 l0 -168 l-168 0 l0 -95 l168 0 l0 -169 l95 0 l0 169 l168 0 ZM482 0 l0 95 l-431 0 l0 -95 l431 0 Z" /><glyph glyph-name="" unicode="&#x2264;" d="M873 535 l-68 69 l-527 -527 l1 487 l-92 -92 l0 -554 l555 0 l92 91 l-487 -1 l526 527 Z" /><glyph glyph-name="" unicode="&#x2265;" d="M839 -82 l0 553 l-92 93 l2 -487 l-527 527 l-69 -69 l527 -527 l-487 1 l92 -91 l554 0 Z" /><glyph glyph-name="" unicode="µ" d="M487 0 l0 507 l-102 0 l0 -309 q-1 -58 -31 -86 q-29 -27 -73 -27 q-44 0 -73 27 q-29 27 -30 86 l0 309 l-102 0 l0 -712 l102 0 l0 224 q29 -24 75 -25 q39 0 73 14 q34 15 61 43 l0 -51 l100 0 Z" /><glyph glyph-name="" unicode="&#x2202;" d="M468 249 l0 242 q0 101 -54 163 q-55 62 -163 64 q-57 0 -98 -15 q-41 -16 -80 -52 l64 -64 q23 22 48 33 q25 11 62 11 q65 -2 93 -40 q27 -37 26 -82 l0 -47 q-23 26 -50 34 q-28 9 -57 8 q-49 -1 -84 -17 q-35 -17 -57 -40 q-34 -36 -46 -84 q-12 -49 -11 -114 q-1 -63 11 -111 q12 -48 46 -85 q24 -26 61 -42 q37 -16 86 -17 q49 1 86 17 q36 16 60 42 q34 37 46 85 q12 48 11 111 l0 0 ZM366 249 q1 -40 -5 -76 q-6 -35 -27 -59 q-13 -14 -31 -21 q-17 -8 -38 -8 q-21 0 -39 8 q-17 7 -31 21 q-21 24 -27 59 q-6 36 -5 76 q-1 40 5 76 q6 35 27 59 q14 14 31 21 q18 8 39 8 q21 0 38 -8 q18 -7 31 -21 q21 -24 27 -59 q6 -36 5 -76 l0 0 Z" /><glyph glyph-name="" unicode="&#x2211;" d="M508 -205 l0 97 l-335 0 l164 346 l0 100 l-161 325 l329 0 l0 97 l-455 0 l0 -88 l193 -383 l-195 -406 l0 -88 l460 0 Z" /><glyph glyph-name="" unicode="&#x220f;" d="M598 -205 l0 965 l-505 0 l0 -965 l108 0 l0 869 l288 0 l0 -869 l109 0 Z" /><glyph glyph-name="" unicode="&#x3c0;" d="M503 0 l0 507 l-415 0 l0 -507 l101 0 l0 412 l214 0 l0 -412 l100 0 Z" /><glyph glyph-name="" unicode="&#x222b;" d="M385 633 l0 87 l-57 0 q-76 -1 -120 -43 q-44 -43 -45 -119 l0 -599 q0 -74 -71 -74 l-44 0 l0 -87 l57 0 q76 1 120 43 q43 43 44 119 l0 599 q0 37 18 55 q19 19 54 19 l44 0 Z" /><glyph glyph-name="" unicode="&#x3a9;" d="M579 0 l0 96 l-70 0 q16 15 28 30 q11 15 18 31 q17 40 21 92 q4 51 3 107 q2 101 -8 168 q-10 67 -60 118 q-37 37 -84 56 q-47 20 -104 20 q-57 0 -104 -20 q-46 -19 -83 -56 q-50 -51 -61 -118 q-10 -67 -8 -168 q-1 -56 4 -107 q4 -52 21 -92 q7 -16 18 -31 q11 -15 27 -30 l-70 0 l0 -96 l207 0 l0 87 q-23 11 -41 25 q-18 14 -31 35 q-15 23 -21 70 q-5 47 -5 134 q-1 104 8 152 q8 47 34 73 q20 21 47 33 q26 12 58 12 q32 0 59 -12 q27 -12 47 -33 q26 -26 34 -73 q9 -48 8 -152 q0 -87 -6 -134 q-6 -47 -21 -70 q-13 -21 -31 -35 q-18 -14 -41 -25 l0 -87 l207 0 Z" /><glyph glyph-name="" unicode="¬" d="M484 98 l0 236 l-436 0 l0 -95 l341 0 l0 -141 l95 0 Z" /><glyph glyph-name="" unicode="&#x221a;" d="M550 615 l0 97 l-172 0 l-163 -518 l-99 313 l-111 0 l168 -507 l84 0 l202 615 l91 0 Z" /><glyph glyph-name="" unicode="&#x2248;" d="M531 380 l-65 64 q-28 -28 -46 -36 q-19 -8 -39 -7 q-21 0 -40 7 q-19 6 -40 17 q-30 15 -56 24 q-26 8 -55 8 q-38 1 -71 -16 q-33 -17 -76 -61 l64 -64 q28 28 46 36 q19 8 39 7 q21 0 40 -7 q18 -6 39 -17 q30 -15 57 -23 q26 -9 55 -9 q39 -1 72 16 q33 17 76 61 l0 0 ZM531 178 l-64 64 q-28 -28 -46 -36 q-19 -9 -39 -8 q-21 0 -40 7 q-19 6 -40 17 q-30 15 -56 24 q-26 9 -55 9 q-38 1 -72 -17 q-33 -17 -76 -61 l64 -64 q28 28 47 36 q19 9 39 8 q21 0 40 -7 q18 -6 39 -17 q30 -15 57 -24 q26 -9 55 -9 q38 -1 71 17 q33 17 76 61 l0 0 Z" /><glyph glyph-name="" unicode="&#x394;" d="M613 0 l-260 712 l-87 0 l-261 -712 l608 0 ZM472 92 l-323 0 l162 459 l161 -459 Z" /><glyph glyph-name="" unicode=" " d="" /><glyph glyph-name="" unicode="À" d="M617 0 l-261 712 l-87 0 l-261 -712 l115 0 l49 143 l281 0 l49 -143 l115 0 ZM423 235 l-219 0 l111 316 l108 -316 ZM361 781 l-75 162 l-113 0 l111 -162 l77 0 Z" /><glyph glyph-name="" unicode="Ã" d="M617 0 l-261 712 l-87 0 l-261 -712 l115 0 l49 143 l281 0 l49 -143 l115 0 ZM423 235 l-219 0 l111 316 l108 -316 ZM478 849 l-48 47 q-20 -20 -34 -26 q-13 -6 -25 -5 q-15 0 -27 5 q-13 5 -28 14 q-20 12 -37 18 q-17 6 -38 6 q-23 1 -47 -11 q-24 -11 -57 -44 l48 -47 q20 20 33 26 q13 5 25 4 q15 0 28 -5 q14 -6 28 -14 q19 -11 36 -17 q18 -6 39 -6 q23 -1 47 11 q24 11 57 44 l0 0 Z" /><glyph glyph-name="" unicode="Õ" d="M579 356 q2 101 -8 168 q-10 67 -60 118 q-37 37 -84 56 q-47 20 -104 20 q-57 0 -104 -20 q-46 -19 -83 -56 q-50 -51 -61 -118 q-10 -67 -8 -168 q-2 -101 8 -168 q11 -67 61 -118 q37 -37 83 -56 q47 -20 104 -20 q57 0 104 20 q47 19 84 56 q50 51 60 118 q10 67 8 168 l0 0 ZM471 356 q1 -104 -8 -150 q-8 -46 -34 -71 q-19 -20 -47 -32 q-27 -12 -59 -12 q-32 0 -59 12 q-28 12 -47 32 q-26 25 -34 71 q-9 46 -8 150 q-1 104 8 150 q8 46 34 71 q19 20 47 32 q27 12 59 12 q32 0 59 -12 q28 -12 47 -32 q26 -25 34 -71 q9 -46 8 -150 l0 0 ZM492 849 l-48 47 q-20 -20 -34 -26 q-13 -6 -25 -5 q-15 0 -27 5 q-13 5 -28 14 q-20 12 -37 18 q-17 6 -38 6 q-23 1 -47 -11 q-24 -11 -57 -44 l48 -47 q20 20 33 26 q13 5 25 4 q15 0 28 -5 q14 -6 28 -14 q19 -11 36 -17 q18 -6 39 -6 q23 -1 47 11 q24 11 57 44 l0 0 Z" /><glyph glyph-name="" unicode="÷" d="M339 471 q-1 31 -21 52 q-21 20 -52 21 q-31 -1 -51 -21 q-20 -21 -21 -52 q1 -31 21 -51 q20 -20 51 -21 q31 1 52 21 q20 20 21 51 l0 0 ZM484 230 l0 95 l-436 0 l0 -95 l436 0 ZM339 84 q-1 31 -21 52 q-21 20 -52 21 q-31 -1 -51 -21 q-20 -21 -21 -52 q1 -31 21 -51 q20 -21 51 -22 q31 1 52 22 q20 20 21 51 l0 0 Z" /><glyph glyph-name="" unicode="&#x25ca;" d="M582 346 l-261 365 l-260 -365 l260 -365 l261 365 ZM467 346 l-146 -208 l-146 208 l146 207 l146 -207 Z" /><glyph glyph-name="" unicode="ÿ" d="M464 507 l-109 0 l-118 -357 l-121 357 l-108 0 l177 -483 l-28 -79 q-10 -30 -26 -42 q-16 -12 -47 -12 l-26 0 l0 -92 l41 0 q29 0 56 8 q27 8 48 29 q11 11 20 27 q10 15 17 36 l224 608 ZM400 657 q-1 24 -16 40 q-16 15 -40 16 q-24 -1 -40 -16 q-16 -16 -17 -40 q1 -24 17 -40 q16 -16 40 -17 q24 1 40 17 q15 16 16 40 l0 0 ZM181 657 q-1 24 -17 40 q-16 15 -40 16 q-24 -1 -40 -16 q-15 -16 -16 -40 q1 -24 16 -40 q16 -16 40 -17 q24 1 40 17 q16 16 17 40 l0 0 Z" /><glyph glyph-name="" unicode="&#x178;" d="M539 712 l-118 0 l-149 -313 l-149 313 l-118 0 l213 -419 l0 -293 l108 0 l0 293 l213 419 ZM437 839 q-1 24 -16 40 q-16 15 -40 16 q-24 -1 -40 -16 q-16 -16 -17 -40 q1 -24 17 -40 q16 -16 40 -17 q24 1 40 17 q15 16 16 40 l0 0 ZM218 839 q-1 24 -17 40 q-16 15 -40 16 q-24 -1 -40 -16 q-15 -16 -16 -40 q1 -24 16 -40 q16 -16 40 -17 q24 1 40 17 q16 16 17 40 l0 0 Z" /><glyph glyph-name="" unicode="Â" d="M617 0 l-261 712 l-87 0 l-261 -712 l115 0 l49 143 l281 0 l49 -143 l115 0 ZM423 235 l-219 0 l111 316 l108 -316 ZM481 781 l-129 161 l-86 0 l-129 -161 l85 0 l87 97 l87 -97 l85 0 Z" /><glyph glyph-name="" unicode="Ê" d="M548 0 l0 97 l-347 0 l0 214 l296 0 l0 96 l-296 0 l0 208 l347 0 l0 97 l-455 0 l0 -712 l455 0 ZM483 781 l-129 161 l-86 0 l-129 -161 l85 0 l87 97 l87 -97 l85 0 Z" /><glyph glyph-name="" unicode="Á" d="M617 0 l-261 712 l-87 0 l-261 -712 l115 0 l49 143 l281 0 l49 -143 l115 0 ZM423 235 l-219 0 l111 316 l108 -316 ZM445 943 l-113 0 l-75 -162 l77 0 l111 162 Z" /><glyph glyph-name="" unicode="Ë" d="M548 0 l0 97 l-347 0 l0 214 l296 0 l0 96 l-296 0 l0 208 l347 0 l0 97 l-455 0 l0 -712 l455 0 ZM477 839 q-1 24 -16 40 q-16 15 -40 16 q-24 -1 -40 -16 q-16 -16 -17 -40 q1 -24 17 -40 q16 -16 40 -17 q24 1 40 17 q15 16 16 40 l0 0 ZM258 839 q-1 24 -17 40 q-16 15 -40 16 q-24 -1 -40 -16 q-15 -16 -16 -40 q1 -24 16 -40 q16 -16 40 -17 q24 1 40 17 q16 16 17 40 l0 0 Z" /><glyph glyph-name="" unicode="È" d="M548 0 l0 97 l-347 0 l0 214 l296 0 l0 96 l-296 0 l0 208 l347 0 l0 97 l-455 0 l0 -712 l455 0 ZM363 781 l-75 162 l-113 0 l111 -162 l77 0 Z" /><glyph glyph-name="" unicode="Í" d="M201 0 l0 712 l-108 0 l0 -712 l108 0 ZM281 943 l-113 0 l-75 -162 l77 0 l111 162 Z" /><glyph glyph-name="" unicode="Î" d="M201 0 l0 712 l-108 0 l0 -712 l108 0 ZM437 781 l-129 161 l-86 0 l-129 -161 l85 0 l87 97 l87 -97 l85 0 Z" /><glyph glyph-name="" unicode="Ï" d="M201 0 l0 712 l-108 0 l0 -712 l108 0 ZM425 839 q-1 24 -16 40 q-16 15 -40 16 q-24 -1 -40 -16 q-16 -16 -17 -40 q1 -24 17 -40 q16 -16 40 -17 q24 1 40 17 q15 16 16 40 l0 0 ZM206 839 q-1 24 -17 40 q-16 15 -40 16 q-24 -1 -40 -16 q-15 -16 -16 -40 q1 -24 16 -40 q16 -16 40 -17 q24 1 40 17 q16 16 17 40 l0 0 Z" /><glyph glyph-name="" unicode="Ì" d="M201 0 l0 712 l-108 0 l0 -712 l108 0 ZM281 781 l-75 162 l-113 0 l111 -162 l77 0 Z" /><glyph glyph-name="" unicode="Ó" d="M579 356 q2 101 -8 168 q-10 67 -60 118 q-37 37 -84 56 q-47 20 -104 20 q-57 0 -104 -20 q-46 -19 -83 -56 q-50 -51 -61 -118 q-10 -67 -8 -168 q-2 -101 8 -168 q11 -67 61 -118 q37 -37 83 -56 q47 -20 104 -20 q57 0 104 20 q47 19 84 56 q50 51 60 118 q10 67 8 168 l0 0 ZM471 356 q1 -104 -8 -150 q-8 -46 -34 -71 q-19 -20 -47 -32 q-27 -12 -59 -12 q-32 0 -59 12 q-28 12 -47 32 q-26 25 -34 71 q-9 46 -8 150 q-1 104 8 150 q8 46 34 71 q19 20 47 32 q27 12 59 12 q32 0 59 -12 q28 -12 47 -32 q26 -25 34 -71 q9 -46 8 -150 l0 0 ZM459 943 l-113 0 l-75 -162 l77 0 l111 162 Z" /><glyph glyph-name="" unicode="Ô" d="M579 356 q2 101 -8 168 q-10 67 -60 118 q-37 37 -84 56 q-47 20 -104 20 q-57 0 -104 -20 q-46 -19 -83 -56 q-50 -51 -61 -118 q-10 -67 -8 -168 q-2 -101 8 -168 q11 -67 61 -118 q37 -37 83 -56 q47 -20 104 -20 q57 0 104 20 q47 19 84 56 q50 51 60 118 q10 67 8 168 l0 0 ZM471 356 q1 -104 -8 -150 q-8 -46 -34 -71 q-19 -20 -47 -32 q-27 -12 -59 -12 q-32 0 -59 12 q-28 12 -47 32 q-26 25 -34 71 q-9 46 -8 150 q-1 104 8 150 q8 46 34 71 q19 20 47 32 q27 12 59 12 q32 0 59 -12 q28 -12 47 -32 q26 -25 34 -71 q9 -46 8 -150 l0 0 ZM495 781 l-129 161 l-86 0 l-129 -161 l85 0 l87 97 l87 -97 l85 0 Z" /><glyph glyph-name="" unicode="Ò" d="M579 356 q2 101 -8 168 q-10 67 -60 118 q-37 37 -84 56 q-47 20 -104 20 q-57 0 -104 -20 q-46 -19 -83 -56 q-50 -51 -61 -118 q-10 -67 -8 -168 q-2 -101 8 -168 q11 -67 61 -118 q37 -37 83 -56 q47 -20 104 -20 q57 0 104 20 q47 19 84 56 q50 51 60 118 q10 67 8 168 l0 0 ZM471 356 q1 -104 -8 -150 q-8 -46 -34 -71 q-19 -20 -47 -32 q-27 -12 -59 -12 q-32 0 -59 12 q-28 12 -47 32 q-26 25 -34 71 q-9 46 -8 150 q-1 104 8 150 q8 46 34 71 q19 20 47 32 q27 12 59 12 q32 0 59 -12 q28 -12 47 -32 q26 -25 34 -71 q9 -46 8 -150 l0 0 ZM375 781 l-75 162 l-113 0 l111 -162 l77 0 Z" /><glyph glyph-name="" unicode="Ú" d="M593 240 l0 472 l-108 0 l0 -467 q-1 -72 -41 -113 q-39 -40 -107 -41 q-68 1 -107 41 q-39 41 -40 113 l0 467 l-108 0 l0 -472 q2 -112 73 -178 q71 -66 182 -68 q111 2 182 68 q72 66 74 178 l0 0 ZM474 943 l-113 0 l-75 -162 l77 0 l111 162 Z" /><glyph glyph-name="" unicode="Û" d="M593 240 l0 472 l-108 0 l0 -467 q-1 -72 -41 -113 q-39 -40 -107 -41 q-68 1 -107 41 q-39 41 -40 113 l0 467 l-108 0 l0 -472 q2 -112 73 -178 q71 -66 182 -68 q111 2 182 68 q72 66 74 178 l0 0 ZM510 781 l-129 161 l-86 0 l-129 -161 l85 0 l87 97 l87 -97 l85 0 Z" /><glyph glyph-name="" unicode="Ù" d="M593 240 l0 472 l-108 0 l0 -467 q-1 -72 -41 -113 q-39 -40 -107 -41 q-68 1 -107 41 q-39 41 -40 113 l0 467 l-108 0 l0 -472 q2 -112 73 -178 q71 -66 182 -68 q111 2 182 68 q72 66 74 178 l0 0 ZM390 781 l-75 162 l-113 0 l111 -162 l77 0 Z" /></font>
</defs>
</svg>
