<?xml version="1.0" standalone="no"?><!DOCTYPE svg PUBLIC "-//W3C//DTD SVG 1.1//EN" "http://www.w3.org/Graphics/SVG/1.1/DTD/svg11.dtd" ><svg xmlns="http://www.w3.org/2000/svg"><metadata></metadata><defs><font id="DIN-BoldAlternate:1166835788" horiz-adv-x="1211"><font-face font-family="DIN Alternate" font-weight="700" font-stretch="normal" units-per-em="1000" panose-1="0 0 0 0 0 0 0 0 0 0" ascent="1015" descent="-206" x-height="0" bbox="-115 -206 1158 1015" underline-thickness="87" underline-position="-135" unicode-range="U+0020-fb02" /><missing-glyph horiz-adv-x="1000"  /><glyph glyph-name="" unicode=" " d="" /><glyph glyph-name="" unicode="!" d="M273 712 l-161 0 l32 -489 l96 0 l33 489 ZM271 75 q-1 33 -23 56 q-23 22 -56 23 q-33 -1 -55 -23 q-22 -23 -23 -56 q1 -33 23 -55 q22 -22 55 -23 q33 1 56 23 q22 22 23 55 l0 0 Z" /><glyph glyph-name="" unicode="&quot;" d="M395 501 l0 211 l-121 0 l0 -211 l121 0 ZM190 501 l0 211 l-122 0 l0 -211 l122 0 Z" /><glyph glyph-name="" unicode="#" d="M643 420 l0 121 l-69 0 l27 177 l-136 0 l-28 -177 l-116 0 l28 177 l-137 0 l-28 -177 l-89 0 l0 -121 l70 0 l-16 -108 l-89 0 l0 -122 l69 0 l-30 -190 l137 0 l30 190 l116 0 l-31 -190 l137 0 l30 190 l89 0 l0 122 l-69 0 l16 108 l89 0 ZM417 420 l-16 -108 l-116 0 l17 108 l115 0 Z" /><glyph glyph-name="" unicode="$" d="M571 210 q0 47 -13 85 q-14 38 -42 65 q-22 21 -55 35 q-33 14 -81 21 l-38 6 l0 174 q32 -2 65 -13 q33 -11 58 -35 l88 87 q-40 39 -88 59 q-49 19 -109 23 l0 89 l-101 0 l0 -90 q-98 -12 -153 -69 q-54 -57 -55 -145 q0 -45 13 -79 q13 -35 38 -60 q23 -23 58 -38 q35 -16 80 -22 l32 -4 l0 -181 q-45 1 -86 15 q-41 14 -73 45 l-90 -90 q48 -49 106 -71 q58 -21 130 -23 l0 -108 l101 0 l0 112 q95 12 154 66 q59 54 61 146 l0 0 ZM268 428 q-42 6 -66 28 q-11 11 -16 24 q-5 13 -5 27 q0 34 22 58 q22 23 65 30 l0 -167 ZM435 206 q0 -37 -24 -59 q-24 -22 -69 -27 l0 172 q20 -2 38 -7 q18 -5 33 -19 q11 -11 17 -26 q5 -15 5 -34 l0 0 Z" /><glyph glyph-name="" unicode="%" d="M796 131 l0 99 q-2 68 -43 102 q-42 35 -102 35 q-61 0 -102 -35 q-41 -34 -43 -102 l0 -99 q2 -68 43 -102 q41 -35 102 -35 q60 0 102 35 q41 34 43 102 l0 0 ZM644 712 l-102 0 l-337 -712 l102 0 l337 712 ZM342 482 l0 99 q-2 68 -43 102 q-42 35 -102 35 q-61 0 -102 -35 q-41 -34 -43 -102 l0 -99 q2 -68 43 -102 q41 -35 102 -35 q60 0 102 35 q41 34 43 102 l0 0 ZM702 135 q0 -28 -13 -43 q-14 -14 -38 -14 q-25 0 -38 14 q-13 15 -13 43 l0 91 q0 29 13 43 q13 14 38 14 q24 0 38 -14 q13 -14 13 -43 l0 -91 ZM248 486 q0 -28 -13 -43 q-14 -14 -38 -14 q-24 0 -37 14 q-14 15 -14 43 l0 91 q0 29 13 43 q13 14 38 14 q24 0 38 -14 q13 -14 13 -43 l0 -91 Z" /><glyph glyph-name="" unicode="&amp;" d="M696 0 l-128 151 q37 42 55 97 q18 55 21 124 l-123 0 q-1 -38 -10 -70 q-9 -32 -26 -55 l-120 142 q15 10 32 23 q18 13 19 14 q33 24 53 53 q20 30 20 71 q-1 74 -49 120 q-48 47 -133 48 q-90 -1 -140 -47 q-49 -45 -50 -119 q2 -51 25 -89 q23 -37 46 -62 q-49 -30 -87 -77 q-39 -46 -41 -114 q0 -101 59 -158 q58 -57 176 -58 q75 2 118 24 q42 23 66 44 l52 -62 l165 0 ZM366 549 q0 -19 -12 -33 q-11 -15 -29 -27 q-1 -1 -11 -8 q-11 -7 -19 -12 q-19 22 -33 41 q-13 20 -14 39 q0 25 15 41 q15 16 44 17 q28 -1 43 -17 q16 -16 16 -41 l0 0 ZM400 154 q-24 -22 -50 -32 q-25 -10 -56 -10 q-46 1 -76 28 q-31 27 -32 72 q0 37 20 62 q19 25 52 47 l142 -167 Z" /><glyph glyph-name="" unicode="&#x2019;" d="M204 588 l0 124 l-136 0 l0 -227 l136 103 Z" /><glyph glyph-name="" unicode="(" d="M281 -7 q-18 17 -31 32 q-13 14 -25 35 q-15 27 -15 84 l0 424 q0 57 15 84 q12 21 25 35 q13 15 31 32 l-87 87 q-25 -24 -48 -49 q-22 -25 -40 -54 q-17 -30 -22 -63 q-5 -33 -4 -66 l0 -436 q-1 -33 4 -66 q5 -33 22 -63 q18 -29 40 -54 q23 -25 48 -49 l87 87 Z" /><glyph glyph-name="" unicode=")" d="M256 138 l0 436 q1 33 -4 66 q-5 33 -22 63 q-17 29 -40 54 q-23 25 -48 49 l-88 -88 q18 -17 31 -31 q13 -14 25 -35 q15 -27 15 -84 l0 -424 q0 -57 -15 -84 q-12 -21 -25 -35 q-13 -14 -31 -31 l88 -88 q25 24 48 49 q23 25 40 54 q17 30 22 63 q5 33 4 66 l0 0 Z" /><glyph glyph-name="" unicode="*" d="M440 460 l-111 58 l111 58 l-46 80 l-105 -67 l4 125 l-92 0 l5 -125 l-106 67 l-45 -80 l110 -58 l-110 -58 l45 -79 l106 66 l-5 -125 l92 0 l-4 125 l105 -66 l46 79 Z" /><glyph glyph-name="" unicode="+" d="M493 216 l0 122 l-160 0 l0 160 l-122 0 l0 -160 l-161 0 l0 -122 l161 0 l0 -160 l122 0 l0 160 l160 0 Z" /><glyph glyph-name="" unicode="," d="M211 -55 l0 197 l-143 0 l0 -307 l143 110 Z" /><glyph glyph-name="" unicode="-" d="M367 225 l0 121 l-308 0 l0 -121 l308 0 Z" /><glyph glyph-name="" unicode="." d="M235 84 q-1 37 -26 62 q-25 24 -62 25 q-37 -1 -61 -25 q-25 -25 -26 -62 q1 -37 26 -61 q24 -25 61 -26 q37 1 62 26 q25 24 26 61 l0 0 Z" /><glyph glyph-name="" unicode="/" d="M407 786 l-122 0 l-285 -860 l122 0 l285 860 Z" /><glyph glyph-name="" unicode="0" d="M489 206 l0 185 q-3 103 -65 157 q-62 55 -152 55 q-90 0 -152 -55 q-62 -54 -65 -157 l0 -185 q3 -102 65 -157 q62 -54 152 -55 q90 1 152 55 q62 55 65 157 l0 0 ZM359 207 q-1 -45 -24 -70 q-24 -26 -63 -26 q-39 0 -63 26 q-23 25 -24 70 l0 182 q1 45 24 71 q24 26 63 26 q39 0 63 -26 q23 -26 24 -71 l0 -182 Z" /><glyph glyph-name="" unicode="1" d="M329 0 l0 597 l-130 0 l-146 -126 l0 -140 l146 126 l0 -457 l130 0 Z" /><glyph glyph-name="" unicode="2" d="M490 0 l0 117 l-269 0 l129 115 q55 47 91 92 q35 45 36 102 q-2 90 -62 143 q-60 53 -154 54 q-92 -1 -153 -54 q-62 -54 -64 -151 l130 0 q1 46 27 67 q26 21 60 21 q40 -1 63 -23 q23 -22 23 -59 q0 -28 -19 -54 q-19 -26 -52 -54 l-233 -199 l0 -117 l447 0 Z" /><glyph glyph-name="" unicode="3" d="M486 91 q-1 64 -27 103 q-26 39 -65 59 q36 18 59 54 q22 35 23 92 q-2 92 -61 147 q-60 56 -156 57 q-92 -1 -153 -54 q-61 -53 -65 -149 l130 0 q3 41 27 63 q24 23 61 23 q36 0 61 -23 q25 -23 26 -68 q0 -38 -21 -64 q-22 -25 -69 -26 l-19 0 l0 -113 l19 0 q48 -1 74 -27 q26 -26 26 -71 q-1 -48 -27 -73 q-26 -26 -69 -26 q-39 0 -67 23 q-27 22 -30 70 l-130 0 q5 -111 71 -161 q66 -50 156 -49 q94 0 159 53 q64 54 67 160 l0 0 Z" /><glyph glyph-name="" unicode="4" d="M550 30 l0 123 l-80 0 l0 147 l-124 0 l0 -147 l-167 0 l243 488 l-139 0 l-244 -488 l0 -123 l307 0 l0 -153 l124 0 l0 153 l80 0 Z" /><glyph glyph-name="" unicode="5" d="M499 125 q1 51 -11 99 q-12 49 -53 91 q-22 22 -55 35 q-34 13 -78 13 q-36 -1 -64 -11 q-28 -11 -43 -25 l0 153 l288 0 l0 117 l-406 0 l0 -402 l119 0 q6 22 27 40 q20 17 59 18 q47 0 67 -33 q20 -33 20 -95 q0 -34 -5 -61 q-6 -27 -23 -45 q-12 -12 -28 -17 q-15 -6 -34 -6 q-40 0 -61 23 q-21 23 -26 65 l-130 0 q2 -39 14 -77 q12 -38 44 -71 q23 -24 63 -40 q40 -16 96 -17 q55 1 94 17 q39 16 63 41 q38 38 51 84 q13 45 12 104 l0 0 Z" /><glyph glyph-name="" unicode="6" d="M508 225 q-3 107 -60 164 q-57 57 -138 57 q-24 0 -42 -3 q-18 -4 -34 -12 l170 297 l-139 0 l-155 -279 q-34 -61 -52 -113 q-17 -53 -17 -114 q2 -111 68 -169 q65 -59 166 -59 q101 1 166 60 q65 60 67 171 l0 0 ZM378 223 q-1 -55 -29 -86 q-29 -31 -75 -31 q-46 0 -74 31 q-28 31 -29 86 q1 55 29 86 q28 31 74 31 q47 -1 75 -32 q28 -32 29 -85 l0 0 Z" /><glyph glyph-name="" unicode="7" d="M518 480 l0 117 l-473 0 l0 -229 l124 0 l0 112 l209 0 l-263 -598 l140 0 l263 598 Z" /><glyph glyph-name="" unicode="8" d="M508 207 q-2 65 -30 103 q-29 38 -60 57 q29 19 54 55 q24 36 26 93 q-2 95 -64 149 q-62 53 -154 54 q-92 -1 -154 -54 q-62 -54 -64 -149 q2 -57 27 -93 q24 -36 53 -55 q-31 -19 -60 -57 q-28 -38 -30 -103 q2 -104 67 -158 q64 -55 161 -55 q97 0 161 55 q65 54 67 158 l0 0 ZM368 511 q-1 -40 -25 -64 q-24 -25 -63 -26 q-39 1 -63 26 q-24 24 -25 64 q1 39 25 64 q24 25 63 26 q39 -1 63 -26 q24 -25 25 -64 l0 0 ZM378 209 q-1 -42 -28 -70 q-28 -27 -70 -28 q-42 1 -70 28 q-27 28 -28 70 q1 42 28 70 q28 28 70 29 q42 -1 70 -29 q27 -28 28 -70 l0 0 Z" /><glyph glyph-name="" unicode="9" d="M508 375 q-2 111 -67 169 q-66 59 -167 59 q-101 -1 -166 -60 q-65 -60 -67 -171 q3 -107 60 -164 q57 -56 138 -57 q24 0 42 3 q18 4 34 12 l-170 -297 l140 0 l154 279 q35 61 52 114 q17 52 17 113 l0 0 ZM378 374 q-1 -55 -29 -86 q-28 -31 -74 -31 q-47 1 -75 32 q-28 32 -29 85 q1 55 30 86 q28 31 74 31 q46 0 74 -31 q28 -31 29 -86 l0 0 Z" /><glyph glyph-name="" unicode=":" d="M259 349 q-1 37 -25 62 q-25 25 -62 26 q-37 -1 -61 -26 q-25 -25 -26 -62 q1 -37 26 -61 q24 -25 61 -26 q37 1 62 26 q24 24 25 61 l0 0 ZM259 84 q-1 37 -25 62 q-25 24 -62 25 q-37 -1 -61 -25 q-25 -25 -26 -62 q1 -37 26 -61 q24 -25 61 -26 q37 1 62 26 q24 24 25 61 l0 0 Z" /><glyph glyph-name="" unicode=";" d="M259 349 q-1 37 -25 62 q-25 25 -62 26 q-37 -1 -61 -26 q-25 -25 -26 -62 q1 -37 26 -61 q24 -25 61 -26 q37 1 62 26 q24 24 25 61 l0 0 ZM243 -55 l0 197 l-142 0 l0 -307 l142 110 Z" /><glyph glyph-name="" unicode="&lt;" d="M898 208 l0 164 l-323 -327 l0 704 l-123 0 l0 -704 l-324 327 l0 -164 l385 -386 l385 386 Z" /><glyph glyph-name="" unicode="=" d="M493 333 l0 122 l-443 0 l0 -122 l443 0 ZM493 116 l0 122 l-443 0 l0 -122 l443 0 Z" /><glyph glyph-name="" unicode="&gt;" d="M899 200 l0 164 l-385 385 l-385 -385 l0 -164 l324 327 l0 -705 l122 0 l0 705 l324 -327 Z" /><glyph glyph-name="" unicode="?" d="M487 518 q-3 96 -63 148 q-61 51 -148 52 q-89 -1 -148 -53 q-60 -53 -62 -147 l130 0 q0 35 20 59 q20 23 60 24 q38 -1 59 -23 q22 -23 22 -59 q0 -17 -8 -34 q-9 -17 -21 -33 l-74 -95 q-19 -25 -29 -49 q-9 -23 -9 -55 l0 -30 l130 0 l0 21 q0 13 5 27 q5 14 13 24 l74 98 q21 27 35 58 q14 30 14 67 l0 0 ZM360 75 q-1 33 -23 56 q-23 22 -56 23 q-33 -1 -55 -23 q-22 -23 -23 -56 q1 -33 23 -55 q22 -22 55 -23 q33 1 56 23 q22 22 23 55 l0 0 Z" /><glyph glyph-name="" unicode="@" d="M700 -3 l0 469 q1 61 -13 108 q-14 47 -48 81 q-35 35 -82 48 q-47 14 -106 13 l-144 0 q-61 1 -107 -13 q-47 -14 -81 -48 q-34 -34 -48 -81 q-14 -47 -14 -108 l0 -299 q0 -66 18 -106 q19 -40 61 -76 l90 90 q-24 21 -34 42 q-10 21 -10 57 l0 289 q-1 31 7 56 q7 25 28 46 q21 21 46 28 q24 7 54 7 l124 0 q30 0 55 -8 q25 -8 45 -27 q20 -20 28 -45 q7 -26 7 -57 l0 -45 q-22 25 -51 37 q-29 12 -67 12 q-39 0 -72 -13 q-32 -14 -54 -38 q-29 -32 -38 -76 q-9 -43 -8 -109 q-1 -67 8 -111 q9 -44 39 -76 q23 -24 55 -37 q32 -13 71 -13 q41 0 69 13 q28 13 51 39 l0 -46 l121 -3 ZM576 231 q1 -60 -17 -94 q-19 -34 -66 -35 q-47 1 -65 35 q-18 34 -17 94 q-1 60 17 94 q18 33 65 34 q47 -1 66 -34 q18 -34 17 -94 l0 0 Z" /><glyph glyph-name="" unicode="A" d="M633 0 l-260 712 l-109 0 l-259 -712 l145 0 l43 126 l253 0 l42 -126 l145 0 ZM409 243 l-177 0 l90 259 l87 -259 Z" /><glyph glyph-name="" unicode="B" d="M599 205 q-2 70 -33 108 q-31 38 -65 52 q29 13 58 50 q28 38 30 97 q-1 93 -58 146 q-57 53 -162 54 l-286 0 l0 -712 l298 0 q97 0 157 53 q59 52 61 152 l0 0 ZM450 506 q0 -37 -24 -59 q-24 -22 -68 -23 l-136 0 l0 164 l136 0 q44 -1 68 -23 q24 -22 24 -59 l0 0 ZM460 212 q0 -37 -23 -62 q-23 -25 -70 -26 l-145 0 l0 175 l145 0 q47 -1 70 -25 q23 -25 23 -62 l0 0 Z" /><glyph glyph-name="" unicode="C" d="M519 76 l-92 92 q-22 -23 -46 -37 q-23 -13 -60 -13 q-29 0 -51 10 q-22 10 -37 27 q-20 19 -28 60 q-7 41 -7 141 q0 100 7 141 q8 41 28 60 q15 17 37 27 q22 10 51 10 q37 0 60 -13 q24 -14 46 -37 l92 92 q-37 38 -84 60 q-47 22 -114 22 q-58 0 -106 -20 q-48 -20 -86 -58 q-52 -53 -62 -123 q-10 -69 -8 -161 q-2 -92 8 -161 q10 -70 62 -123 q38 -38 86 -58 q48 -20 106 -20 q67 0 114 22 q47 22 84 60 l0 0 Z" /><glyph glyph-name="" unicode="D" d="M600 359 q3 81 -6 153 q-9 72 -66 132 q-36 35 -84 52 q-48 16 -104 16 l-257 0 l0 -712 l257 0 q56 0 104 16 q48 17 84 52 q57 61 66 135 q9 75 6 156 l0 0 ZM461 359 q1 -80 -5 -124 q-6 -44 -25 -67 q-18 -22 -43 -33 q-25 -11 -61 -11 l-105 0 l0 464 l105 0 q36 0 61 -11 q25 -11 43 -33 q19 -22 25 -64 q6 -42 5 -121 l0 0 Z" /><glyph glyph-name="" unicode="E" d="M552 0 l0 124 l-330 0 l0 173 l281 0 l0 124 l-281 0 l0 167 l330 0 l0 124 l-469 0 l0 -712 l469 0 Z" /><glyph glyph-name="" unicode="F" d="M552 588 l0 124 l-469 0 l0 -712 l139 0 l0 289 l281 0 l0 124 l-281 0 l0 175 l330 0 Z" /><glyph glyph-name="" unicode="G" d="M586 294 l0 102 l-265 0 l0 -116 l126 0 l0 -25 q0 -27 -7 -52 q-7 -26 -24 -45 q-17 -19 -40 -29 q-24 -11 -55 -11 q-29 0 -51 10 q-23 10 -38 27 q-20 19 -27 60 q-7 41 -7 141 q0 100 7 140 q7 41 27 60 q15 17 38 28 q22 10 51 10 q40 0 68 -15 q27 -16 56 -46 l94 94 q-46 48 -96 70 q-49 21 -122 21 q-60 0 -107 -20 q-48 -20 -85 -58 q-52 -53 -62 -123 q-10 -69 -8 -161 q-2 -92 8 -161 q10 -70 62 -123 q38 -38 86 -58 q48 -20 106 -20 q61 0 111 21 q50 21 88 61 q37 38 52 90 q15 52 14 128 l0 0 Z" /><glyph glyph-name="" unicode="H" d="M602 0 l0 712 l-139 0 l0 -291 l-241 0 l0 291 l-139 0 l0 -712 l139 0 l0 298 l241 0 l0 -298 l139 0 Z" /><glyph glyph-name="" unicode="I" d="M222 0 l0 712 l-139 0 l0 -712 l139 0 Z" /><glyph glyph-name="" unicode="J" d="M437 234 l0 478 l-139 0 l0 -472 q-1 -61 -30 -92 q-30 -30 -82 -30 q-34 0 -54 11 q-21 11 -37 29 l-92 -91 q39 -39 83 -56 q43 -17 100 -17 q102 0 175 61 q73 61 76 179 l0 0 Z" /><glyph glyph-name="" unicode="K" d="M659 0 l-253 429 l236 283 l-169 0 l-251 -310 l0 310 l-139 0 l0 -712 l139 0 l0 214 l92 110 l183 -324 l162 0 Z" /><glyph glyph-name="" unicode="L" d="M545 0 l0 124 l-323 0 l0 588 l-139 0 l0 -712 l462 0 Z" /><glyph glyph-name="" unicode="M" d="M728 0 l0 712 l-137 0 l-185 -385 l-186 385 l-137 0 l0 -712 l139 0 l0 415 l137 -270 l94 0 l136 270 l0 -415 l139 0 Z" /><glyph glyph-name="" unicode="N" d="M628 0 l0 712 l-139 0 l0 -436 l-282 436 l-124 0 l0 -712 l139 0 l0 437 l282 -437 l124 0 Z" /><glyph glyph-name="" unicode="O" d="M585 356 q2 92 -8 161 q-11 70 -63 123 q-37 38 -84 58 q-48 20 -108 20 q-61 0 -108 -20 q-48 -20 -85 -58 q-52 -53 -62 -123 q-10 -69 -8 -161 q-2 -92 8 -161 q10 -70 62 -123 q37 -38 85 -58 q47 -20 108 -20 q60 0 108 20 q47 20 84 58 q52 53 63 123 q10 69 8 161 l0 0 ZM446 356 q0 -100 -7 -140 q-8 -41 -28 -60 q-15 -17 -38 -28 q-22 -10 -51 -10 q-29 0 -52 10 q-23 11 -38 28 q-20 19 -27 60 q-7 40 -7 140 q0 100 7 140 q7 41 27 60 q15 17 38 28 q23 10 52 10 q29 0 51 -10 q23 -11 38 -28 q20 -19 28 -60 q7 -40 7 -140 l0 0 Z" /><glyph glyph-name="" unicode="P" d="M594 490 q-1 93 -62 156 q-62 63 -173 66 l-276 0 l0 -712 l139 0 l0 268 l137 0 q111 3 173 66 q61 63 62 156 l0 0 ZM455 490 q-1 -44 -28 -70 q-27 -26 -75 -27 l-130 0 l0 195 l130 0 q48 -1 75 -27 q27 -27 28 -71 l0 0 Z" /><glyph glyph-name="" unicode="Q" d="M602 43 l-61 61 q32 49 39 111 q6 61 5 141 q2 92 -8 161 q-11 70 -63 123 q-37 38 -84 58 q-48 20 -108 20 q-61 0 -108 -20 q-48 -20 -85 -58 q-52 -53 -62 -123 q-10 -69 -8 -161 q-2 -92 8 -161 q10 -70 62 -123 q37 -38 85 -58 q47 -20 108 -20 q84 0 144 39 l63 -63 l73 73 ZM446 356 q0 -53 -2 -87 q-3 -34 -11 -57 l-53 53 l-74 -73 l62 -61 q-10 -7 -21 -10 q-12 -3 -25 -3 q-29 0 -52 10 q-23 11 -38 28 q-20 19 -27 60 q-7 40 -7 140 q0 100 7 140 q7 41 27 60 q15 17 38 28 q23 10 52 10 q29 0 51 -10 q23 -11 38 -28 q20 -19 28 -60 q7 -40 7 -140 l0 0 Z" /><glyph glyph-name="" unicode="R" d="M622 0 l-159 307 q53 19 91 65 q37 47 39 122 q-1 92 -61 154 q-60 62 -170 64 l-279 0 l0 -712 l139 0 l0 284 l100 0 l139 -284 l161 0 ZM454 494 q-1 -42 -28 -68 q-27 -25 -73 -26 l-131 0 l0 188 l131 0 q46 -1 73 -26 q27 -26 28 -68 l0 0 Z" /><glyph glyph-name="" unicode="S" d="M543 210 q0 47 -13 86 q-14 38 -42 65 q-22 21 -55 35 q-33 13 -81 20 l-84 12 q-22 3 -39 11 q-16 7 -27 17 q-11 11 -16 24 q-5 13 -5 27 q0 38 27 63 q28 26 83 27 q36 1 74 -8 q38 -10 72 -41 l88 87 q-45 44 -101 64 q-56 19 -129 19 q-117 -2 -182 -60 q-65 -59 -66 -156 q0 -89 51 -140 q24 -23 58 -38 q34 -14 80 -21 l86 -12 q24 -4 39 -9 q14 -6 24 -16 q11 -11 17 -26 q5 -15 5 -34 q0 -43 -32 -65 q-32 -23 -94 -23 q-50 0 -94 13 q-44 14 -78 47 l-90 -90 q52 -52 116 -74 q63 -21 144 -20 q114 1 188 56 q73 56 76 160 l0 0 Z" /><glyph glyph-name="" unicode="T" d="M541 588 l0 124 l-511 0 l0 -124 l186 0 l0 -588 l139 0 l0 588 l186 0 Z" /><glyph glyph-name="" unicode="U" d="M596 244 l0 468 l-138 0 l0 -463 q-1 -62 -34 -96 q-33 -34 -90 -35 q-57 1 -90 35 q-32 34 -33 96 l0 463 l-139 0 l0 -468 q3 -115 76 -182 q74 -67 186 -68 q112 1 186 68 q73 67 76 182 l0 0 Z" /><glyph glyph-name="" unicode="V" d="M578 712 l-145 0 l-143 -464 l-143 464 l-144 0 l235 -712 l104 0 l236 712 Z" /><glyph glyph-name="" unicode="W" d="M881 712 l-145 0 l-111 -449 l-130 449 l-104 0 l-130 -449 l-110 449 l-145 0 l190 -712 l116 0 l131 432 l131 -432 l116 0 l191 712 Z" /><glyph glyph-name="" unicode="X" d="M598 0 l-222 365 l207 347 l-157 0 l-125 -230 l-124 230 l-158 0 l207 -347 l-221 -365 l159 0 l137 248 l138 -248 l159 0 Z" /><glyph glyph-name="" unicode="Y" d="M569 712 l-151 0 l-131 -287 l-133 287 l-151 0 l214 -420 l0 -292 l138 0 l0 292 l214 420 Z" /><glyph glyph-name="" unicode="Z" d="M508 0 l0 124 l-305 0 l305 478 l0 110 l-455 0 l0 -124 l291 0 l-304 -476 l0 -112 l468 0 Z" /><glyph glyph-name="" unicode="[" d="M337 -74 l0 117 l-127 0 l0 626 l127 0 l0 117 l-257 0 l0 -860 l257 0 Z" /><glyph glyph-name="" unicode="\" d="M403 -74 l-281 847 l-122 0 l281 -847 l122 0 Z" /><glyph glyph-name="" unicode="]" d="M299 -74 l0 860 l-257 0 l0 -116 l127 0 l0 -628 l-127 0 l0 -116 l257 0 Z" /><glyph glyph-name="" unicode="^" d="M539 389 l-178 330 l-120 0 l-178 -330 l136 0 l102 188 l102 -188 l136 0 Z" /><glyph glyph-name="" unicode="_" d="M602 -178 l0 87 l-602 0 l0 -87 l602 0 Z" /><glyph glyph-name="" unicode="&#x2018;" d="M204 589 l0 228 l-136 -105 l0 -123 l136 0 Z" /><glyph glyph-name="" unicode="a" d="M467 0 l0 343 q0 92 -56 138 q-56 46 -166 46 q-64 1 -107 -15 q-44 -16 -81 -57 l83 -81 q19 23 41 33 q22 10 59 10 q51 0 74 -20 q23 -19 23 -62 l0 -26 l-123 0 q-91 -2 -134 -44 q-44 -43 -44 -107 q0 -35 11 -65 q11 -30 32 -52 q23 -23 56 -35 q33 -11 77 -11 q44 0 73 12 q30 12 55 38 l0 -45 l127 0 ZM337 192 q0 -24 -4 -40 q-5 -16 -15 -26 q-17 -16 -36 -21 q-19 -4 -46 -4 q-38 0 -57 17 q-18 16 -18 43 q0 28 19 43 q19 16 54 16 l103 0 l0 -28 Z" /><glyph glyph-name="" unicode="b" d="M509 261 q2 60 -7 119 q-9 60 -46 100 q-22 22 -55 34 q-33 13 -72 13 q-39 0 -70 -12 q-31 -12 -56 -40 l0 237 l-130 0 l0 -712 l126 0 l0 49 q27 -30 58 -42 q31 -13 72 -13 q39 0 72 13 q33 12 55 34 q37 41 46 100 q9 60 7 120 l0 0 ZM379 261 q2 -65 -15 -107 q-16 -42 -73 -43 q-57 1 -73 43 q-17 42 -15 107 q-2 65 15 106 q16 42 73 43 q57 -1 73 -43 q17 -41 15 -106 l0 0 Z" /><glyph glyph-name="" unicode="c" d="M452 65 l-88 87 q-20 -22 -39 -31 q-20 -10 -45 -10 q-23 0 -41 8 q-19 9 -33 26 q-15 19 -22 47 q-7 28 -7 69 q0 41 7 69 q7 28 22 46 q14 17 33 26 q18 8 41 8 q25 0 45 -10 q19 -9 39 -31 l88 88 q-34 36 -76 53 q-42 17 -96 17 q-83 3 -155 -54 q-73 -57 -78 -212 q5 -155 78 -213 q72 -57 155 -54 q54 0 96 18 q42 17 76 53 l0 0 Z" /><glyph glyph-name="" unicode="d" d="M488 0 l0 712 l-130 0 l0 -237 q-25 28 -56 40 q-31 12 -71 12 q-39 0 -72 -13 q-33 -12 -55 -34 q-37 -40 -46 -100 q-9 -59 -7 -119 q-2 -60 7 -120 q9 -59 46 -100 q22 -22 56 -34 q33 -13 72 -13 q41 0 72 13 q30 12 57 42 l0 -49 l127 0 ZM358 261 q2 -65 -15 -107 q-17 -42 -74 -43 q-57 1 -73 43 q-17 42 -15 107 q-2 65 15 106 q16 42 73 43 q57 -1 74 -43 q17 -41 15 -106 l0 0 Z" /><glyph glyph-name="" unicode="e" d="M501 220 l0 58 q-1 109 -59 178 q-59 69 -168 71 q-103 -1 -164 -69 q-61 -69 -63 -197 q4 -155 74 -213 q71 -57 167 -54 q69 0 114 21 q46 21 84 61 l-79 77 q-24 -25 -50 -37 q-26 -12 -68 -12 q-55 1 -84 33 q-30 32 -30 83 l326 0 ZM373 309 l-198 0 q1 17 3 30 q3 12 9 26 q11 24 32 39 q22 15 55 15 q33 0 55 -15 q22 -15 32 -39 q6 -14 9 -26 q2 -13 3 -30 l0 0 Z" /><glyph glyph-name="" unicode="f" d="M315 407 l0 99 l-96 0 l0 57 q0 23 11 35 q11 12 34 12 l51 0 l0 110 l-74 0 q-79 -2 -116 -47 q-36 -44 -36 -102 l0 -65 l-54 0 l0 -99 l54 0 l0 -407 l130 0 l0 407 l96 0 Z" /><glyph glyph-name="" unicode="g" d="M482 19 l0 502 l-126 0 l0 -49 q-26 30 -56 43 q-30 12 -71 12 q-39 0 -71 -12 q-32 -12 -54 -34 q-35 -36 -45 -87 q-9 -51 -8 -119 q-1 -68 8 -119 q10 -51 45 -88 q22 -22 54 -34 q32 -12 70 -12 q38 0 68 12 q31 12 56 40 l0 -53 q1 -42 -23 -74 q-24 -32 -82 -34 q-33 0 -57 10 q-24 9 -45 30 l-81 -82 q40 -38 85 -53 q45 -16 104 -15 q106 2 167 61 q61 59 62 155 l0 0 ZM352 275 q2 -54 -14 -94 q-16 -40 -72 -42 q-56 2 -71 42 q-16 40 -14 94 q-2 54 14 93 q15 40 71 42 q56 -2 72 -42 q16 -39 14 -93 l0 0 Z" /><glyph glyph-name="" unicode="h" d="M502 0 l0 337 q0 84 -44 136 q-44 52 -130 54 q-35 0 -67 -13 q-32 -14 -58 -41 l0 239 l-130 0 l0 -712 l130 0 l0 318 q1 50 27 72 q25 21 57 20 q32 1 58 -20 q26 -21 27 -72 l0 -318 l130 0 Z" /><glyph glyph-name="" unicode="i" d="M219 668 q-1 35 -24 57 q-22 23 -57 24 q-35 -1 -58 -24 q-23 -22 -24 -57 q1 -35 24 -58 q23 -23 58 -24 q35 1 57 24 q23 23 24 58 l0 0 ZM203 0 l0 521 l-130 0 l0 -521 l130 0 Z" /><glyph glyph-name="" unicode="j" d="M219 668 q-1 35 -24 57 q-22 23 -57 24 q-35 -1 -58 -24 q-23 -22 -24 -57 q1 -35 24 -58 q23 -23 58 -24 q35 1 57 24 q23 23 24 58 l0 0 ZM203 -46 l0 567 l-130 0 l0 -559 q0 -23 -11 -35 q-10 -12 -35 -12 l-50 0 l0 -110 l74 0 q80 2 116 47 q37 44 36 102 l0 0 Z" /><glyph glyph-name="" unicode="k" d="M547 0 l-200 311 l186 210 l-157 0 l-173 -213 l0 404 l-130 0 l0 -712 l130 0 l0 155 l55 62 l128 -217 l161 0 Z" /><glyph glyph-name="" unicode="l" d="M294 0 l0 110 l-50 0 q-25 0 -35 12 q-11 12 -11 35 l0 555 l-130 0 l0 -563 q-1 -58 36 -102 q36 -45 116 -47 l74 0 Z" /><glyph glyph-name="" unicode="m" d="M809 0 l0 333 q0 43 -13 80 q-13 37 -44 68 q-22 22 -55 34 q-34 12 -73 12 q-48 0 -86 -16 q-37 -16 -70 -50 q-25 34 -60 50 q-34 16 -78 16 q-36 0 -70 -14 q-34 -14 -60 -40 l0 48 l-127 0 l0 -521 l130 0 l0 315 q2 53 28 74 q27 22 59 21 q32 1 58 -21 q26 -21 28 -74 l0 -315 l130 0 l0 318 q2 50 29 72 q26 21 58 20 q32 1 58 -21 q26 -21 28 -74 l0 -315 l130 0 Z" /><glyph glyph-name="" unicode="n" d="M506 0 l0 333 q1 43 -11 80 q-11 37 -42 68 q-22 22 -53 34 q-31 12 -70 12 q-36 0 -70 -13 q-34 -14 -60 -41 l0 48 l-127 0 l0 -521 l130 0 l0 315 q2 53 28 74 q27 22 59 21 q32 1 58 -21 q26 -21 28 -74 l0 -315 l130 0 Z" /><glyph glyph-name="" unicode="o" d="M492 261 q1 70 -12 118 q-12 48 -47 84 q-24 26 -64 45 q-40 18 -98 19 q-58 -1 -97 -19 q-40 -19 -64 -45 q-35 -36 -47 -84 q-13 -48 -12 -118 q-1 -70 12 -119 q12 -48 47 -84 q24 -26 64 -45 q39 -18 97 -19 q58 1 98 19 q40 19 64 45 q35 36 47 84 q13 49 12 119 l0 0 ZM362 261 q1 -41 -5 -74 q-5 -32 -25 -53 q-22 -23 -61 -23 q-19 0 -34 6 q-15 6 -26 17 q-20 21 -25 53 q-6 33 -5 74 q-1 41 5 73 q5 32 25 53 q11 11 26 17 q15 6 34 6 q39 0 61 -23 q20 -21 25 -53 q6 -32 5 -73 l0 0 Z" /><glyph glyph-name="" unicode="p" d="M509 261 q2 60 -7 119 q-9 60 -46 100 q-22 22 -55 34 q-33 13 -72 13 q-41 0 -72 -12 q-31 -13 -58 -43 l0 49 l-126 0 l0 -712 l130 0 l0 237 q25 -28 56 -40 q31 -12 70 -12 q39 0 72 13 q33 12 55 34 q37 41 46 100 q9 60 7 120 l0 0 ZM379 261 q2 -65 -15 -107 q-16 -42 -73 -43 q-57 1 -73 43 q-17 42 -15 107 q-2 65 15 106 q16 42 73 43 q57 -1 73 -43 q17 -41 15 -106 l0 0 Z" /><glyph glyph-name="" unicode="q" d="M488 -191 l0 712 l-127 0 l0 -49 q-27 30 -57 43 q-31 12 -72 12 q-39 0 -72 -13 q-34 -12 -56 -34 q-37 -40 -46 -100 q-9 -59 -7 -119 q-2 -60 7 -120 q9 -59 46 -100 q22 -22 55 -34 q33 -13 72 -13 q40 0 71 12 q31 12 56 40 l0 -237 l130 0 ZM358 261 q2 -65 -15 -107 q-17 -42 -74 -43 q-57 1 -73 43 q-17 42 -15 107 q-2 65 15 106 q16 42 73 43 q57 -1 74 -43 q17 -41 15 -106 l0 0 Z" /><glyph glyph-name="" unicode="r" d="M454 478 q-27 27 -56 38 q-29 11 -67 11 q-43 -1 -77 -17 q-35 -16 -54 -39 l0 50 l-127 0 l0 -521 l130 0 l0 314 q2 49 27 73 q26 23 57 23 q23 0 39 -8 q16 -8 30 -23 l98 99 Z" /><glyph glyph-name="" unicode="s" d="M465 164 q0 66 -39 106 q-39 39 -116 47 l-82 8 q-34 4 -44 17 q-11 13 -10 28 q0 20 18 35 q17 14 56 15 q34 0 66 -7 q32 -8 55 -28 l80 81 q-38 35 -88 48 q-50 14 -111 13 q-82 0 -140 -42 q-58 -43 -61 -124 q1 -71 41 -106 q40 -34 111 -40 l82 -8 q30 -3 43 -16 q12 -12 12 -32 q-2 -29 -29 -42 q-28 -12 -63 -12 q-31 -1 -68 8 q-38 10 -71 41 l-85 -85 q50 -48 105 -62 q56 -14 117 -13 q95 0 157 42 q62 42 64 128 l0 0 Z" /><glyph glyph-name="" unicode="t" d="M307 0 l0 110 l-47 0 q-23 0 -34 12 q-11 12 -11 35 l0 250 l92 0 l0 99 l-92 0 l0 154 l-130 0 l0 -154 l-55 0 l0 -99 l55 0 l0 -258 q0 -58 36 -102 q36 -45 115 -47 l71 0 Z" /><glyph glyph-name="" unicode="u" d="M500 0 l0 521 l-130 0 l0 -315 q-2 -53 -28 -74 q-27 -22 -59 -21 q-32 -1 -58 21 q-26 21 -28 74 l0 315 l-130 0 l0 -333 q-1 -43 11 -80 q11 -37 42 -68 q22 -22 53 -34 q31 -12 70 -12 q36 0 70 14 q34 13 60 40 l0 -48 l127 0 Z" /><glyph glyph-name="" unicode="v" d="M489 521 l-137 0 l-105 -322 l-106 322 l-137 0 l192 -521 l102 0 l191 521 Z" /><glyph glyph-name="" unicode="w" d="M755 521 l-137 0 l-84 -322 l-107 322 l-95 0 l-106 -322 l-84 322 l-138 0 l160 -521 l107 0 l109 327 l109 -327 l107 0 l159 521 Z" /><glyph glyph-name="" unicode="x" d="M515 0 l-180 266 l173 255 l-156 0 l-89 -149 l-88 149 l-156 0 l173 -255 l-180 -266 l156 0 l95 156 l96 -156 l156 0 Z" /><glyph glyph-name="" unicode="y" d="M490 521 l-137 0 l-104 -322 l-108 322 l-137 0 l178 -484 l-22 -64 q-9 -28 -23 -38 q-15 -10 -42 -9 l-30 0 l0 -117 l51 0 q32 0 61 9 q28 9 51 31 q12 12 21 29 q10 16 18 38 l223 605 Z" /><glyph glyph-name="" unicode="z" d="M434 0 l0 117 l-234 0 l234 305 l0 99 l-384 0 l0 -117 l218 0 l-231 -305 l0 -99 l397 0 Z" /><glyph glyph-name="" unicode="{" d="M414 -74 l0 117 l-53 0 q-22 0 -36 3 q-13 3 -21 11 q-8 9 -12 24 q-4 15 -4 40 l0 135 q-2 53 -25 73 q-23 21 -44 27 q21 6 44 27 q23 20 25 73 l0 135 q0 25 4 40 q4 15 12 24 q8 8 21 11 q14 3 36 3 l53 0 l0 117 l-102 0 q-39 0 -66 -9 q-28 -10 -46 -28 q-22 -22 -32 -49 q-10 -28 -10 -62 l0 -145 q1 -42 -17 -60 q-8 -8 -21 -14 q-13 -5 -31 -5 l-46 0 l0 -116 l46 0 q18 0 31 -5 q13 -6 21 -14 q18 -18 17 -60 l0 -145 q0 -34 10 -61 q10 -28 32 -50 q18 -18 46 -27 q27 -10 66 -10 l102 0 Z" /><glyph glyph-name="" unicode="|" d="M240 -74 l0 860 l-130 0 l0 -860 l130 0 Z" /><glyph glyph-name="" unicode="}" d="M414 298 l0 116 l-46 0 q-18 0 -31 5 q-13 6 -21 14 q-17 18 -17 60 l0 145 q0 34 -10 62 q-10 27 -32 49 q-18 18 -45 28 q-28 9 -67 9 l-102 0 l0 -117 l53 0 q22 0 36 -3 q13 -3 21 -11 q8 -9 12 -24 q4 -15 4 -40 l0 -135 q2 -53 25 -73 q23 -21 44 -27 q-21 -6 -44 -27 q-23 -20 -25 -73 l0 -135 q0 -25 -4 -40 q-4 -15 -12 -24 q-8 -8 -21 -11 q-14 -3 -36 -3 l-53 0 l0 -117 l102 0 q39 0 67 10 q27 9 45 27 q22 22 32 50 q10 27 10 61 l0 145 q0 42 17 60 q8 8 21 14 q13 5 31 5 l46 0 Z" /><glyph glyph-name="" unicode="~" d="M569 281 l-83 82 q-27 -27 -47 -35 q-20 -8 -40 -7 q-21 0 -40 6 q-20 7 -41 18 q-32 17 -59 26 q-28 8 -58 8 q-44 0 -82 -20 q-37 -20 -82 -66 l82 -82 q27 27 47 35 q19 8 39 7 q21 0 41 -6 q20 -7 41 -18 q32 -17 59 -26 q28 -8 58 -8 q45 0 82 20 q38 20 83 66 l0 0 Z" /><glyph glyph-name="" unicode="¡" d="M262 446 q-1 33 -23 55 q-23 22 -56 23 q-33 -1 -55 -23 q-22 -22 -23 -55 q1 -33 23 -56 q22 -22 55 -23 q33 1 56 23 q22 23 23 56 l0 0 ZM264 -191 l-33 489 l-96 0 l-32 -489 l161 0 Z" /><glyph glyph-name="" unicode="¢" d="M469 180 l-86 84 q-15 -16 -29 -26 q-15 -10 -35 -15 l0 286 q20 -5 35 -15 q14 -10 29 -26 l86 84 q-28 30 -61 49 q-33 19 -75 26 l0 85 l-101 0 l0 -85 q-80 -16 -132 -81 q-51 -65 -53 -180 q2 -115 53 -180 q52 -65 132 -81 l0 -105 l101 0 l0 105 q42 8 75 26 q33 19 61 49 l0 0 ZM246 225 q-23 6 -38 26 q-15 18 -23 46 q-8 28 -8 69 q0 41 8 69 q8 28 23 46 q8 9 17 16 q10 7 21 10 l0 -282 Z" /><glyph glyph-name="" unicode="£" d="M534 0 l0 124 l-295 0 l0 173 l113 0 l0 100 l-113 0 l0 75 q1 61 31 92 q30 30 82 30 q34 0 54 -11 q21 -11 37 -29 l91 91 q-39 39 -82 56 q-43 17 -100 17 q-102 0 -175 -61 q-73 -61 -76 -179 l0 -81 l-61 0 l0 -100 l61 0 l0 -297 l433 0 Z" /><glyph glyph-name="" unicode="&#x2044;" d="M323 712 l-101 0 l-337 -712 l101 0 l337 712 Z" /><glyph glyph-name="" unicode="¥" d="M568 712 l-150 0 l-132 -288 l-132 288 l-151 0 l137 -270 l-75 0 l0 -100 l126 0 l26 -50 l0 -51 l-152 0 l0 -100 l152 0 l0 -141 l138 0 l0 141 l151 0 l0 100 l-151 0 l0 51 l26 50 l125 0 l0 100 l-74 0 l136 270 Z" /><glyph glyph-name="" unicode="&#x192;" d="M397 610 l0 109 l-74 1 q-79 -2 -123 -46 q-44 -45 -54 -103 l-31 -174 l-84 0 l0 -100 l67 0 l-87 -488 l130 0 l87 488 l113 0 l0 100 l-96 0 l29 166 q4 23 17 35 q14 12 37 12 l69 0 Z" /><glyph glyph-name="" unicode="§" d="M473 274 q0 78 -37 122 q-37 44 -109 66 l-62 20 q-32 10 -50 27 q-17 16 -17 39 q0 26 18 42 q17 17 52 17 q30 0 49 -14 q19 -14 21 -47 l122 0 q0 74 -47 122 q-47 48 -145 50 q-97 -2 -145 -53 q-47 -50 -47 -120 q1 -54 22 -85 q22 -30 54 -46 q-31 -16 -60 -55 q-29 -38 -31 -94 q0 -78 37 -122 q37 -43 109 -66 l62 -21 q40 -14 55 -34 q16 -19 15 -40 q0 -29 -19 -46 q-19 -18 -54 -18 q-34 0 -53 18 q-19 17 -21 45 l-125 0 q5 -94 64 -137 q59 -42 135 -41 q77 0 136 45 q59 46 62 138 q-1 57 -24 90 q-23 33 -57 49 q30 16 59 55 q29 38 31 94 l0 0 ZM348 269 q0 -27 -8 -42 q-8 -16 -17 -25 q-9 -9 -23 -15 q-14 -6 -33 -6 q-19 0 -33 6 q-15 6 -24 15 q-9 9 -16 25 q-8 15 -8 42 q0 26 7 42 q6 16 17 26 q9 9 24 15 q14 6 33 6 q19 0 33 -6 q13 -6 23 -15 q11 -10 18 -26 q7 -17 7 -42 l0 0 Z" /><glyph glyph-name="" unicode="¤" d="M610 96 l-73 73 q15 26 24 55 q8 30 8 62 q0 32 -8 62 q-9 29 -24 55 l73 73 l-85 86 l-74 -73 q-26 15 -55 24 q-30 8 -62 8 q-32 0 -61 -8 q-29 -9 -55 -24 l-74 73 l-86 -86 l74 -73 q-15 -26 -24 -55 q-9 -30 -9 -62 q0 -32 9 -62 q9 -29 24 -55 l-74 -73 l86 -86 l74 73 q26 -15 55 -23 q29 -9 61 -9 q32 0 62 9 q29 8 55 23 l74 -73 l85 86 ZM452 286 q-1 -50 -35 -83 q-33 -33 -83 -34 q-50 1 -83 34 q-33 33 -34 83 q1 50 34 83 q33 33 83 34 q50 -1 83 -34 q34 -33 35 -83 l0 0 Z" /><glyph glyph-name="" unicode="&#39;" d="M191 501 l0 211 l-123 0 l0 -211 l123 0 Z" /><glyph glyph-name="" unicode="&#x201c;" d="M414 589 l0 228 l-136 -105 l0 -123 l136 0 ZM203 589 l0 228 l-135 -105 l0 -123 l135 0 Z" /><glyph glyph-name="" unicode="«" d="M562 27 l0 155 l-96 93 l96 93 l0 155 l-250 -248 l250 -248 ZM283 27 l0 155 l-94 93 l94 93 l0 155 l-249 -248 l249 -248 Z" /><glyph glyph-name="" unicode="&#x2039;" d="M283 27 l0 155 l-94 93 l94 93 l0 155 l-249 -248 l249 -248 Z" /><glyph glyph-name="" unicode="­&#x203a;" d="M316 275 l-249 248 l0 -155 l95 -93 l-95 -93 l0 -155 l249 248 Z" /><glyph glyph-name="" unicode="&#xfb01;" d="M545 668 q-1 35 -24 57 q-22 23 -57 24 q-35 -1 -57 -24 q-23 -22 -24 -57 q1 -35 24 -58 q22 -23 57 -24 q35 1 57 24 q23 23 24 58 l0 0 ZM529 0 l0 506 l-130 0 l0 -506 l130 0 ZM311 407 l0 99 l-96 0 l0 57 q0 23 11 35 q11 12 34 12 l51 0 l0 110 l-75 0 q-79 -2 -115 -47 q-36 -44 -36 -102 l0 -65 l-54 0 l0 -99 l54 0 l0 -407 l130 0 l0 407 l96 0 Z" /><glyph glyph-name="" unicode="&#xfb02;" d="M624 0 l0 110 l-50 0 q-25 0 -35 12 q-11 12 -11 35 l0 555 l-130 0 l0 -563 q-1 -58 36 -102 q36 -45 116 -47 l74 0 ZM311 407 l0 99 l-96 0 l0 57 q0 23 11 35 q12 12 35 12 l50 0 l0 110 l-74 0 q-79 -2 -116 -47 q-36 -44 -36 -102 l0 -65 l-54 0 l0 -99 l54 0 l0 -407 l130 0 l0 407 l96 0 Z" /><glyph glyph-name="" unicode="&#x2013;" d="M493 225 l0 121 l-443 0 l0 -121 l443 0 Z" /><glyph glyph-name="" unicode="&#x2020;" d="M522 410 l0 117 l-168 0 l0 185 l-130 0 l0 -185 l-167 0 l0 -117 l167 0 l0 -410 l130 0 l0 410 l168 0 Z" /><glyph glyph-name="" unicode="&#x2021;" d="M522 -6 l0 117 l-168 0 l0 299 l168 0 l0 117 l-168 0 l0 185 l-130 0 l0 -185 l-167 0 l0 -117 l167 0 l0 -299 l-167 0 l0 -117 l167 0 l0 -185 l130 0 l0 185 l168 0 Z" /><glyph glyph-name="" unicode="·" d="M235 284 q-1 37 -26 62 q-25 25 -62 26 q-37 -1 -61 -26 q-25 -25 -26 -62 q1 -37 26 -61 q24 -25 61 -26 q37 1 62 26 q25 24 26 61 l0 0 Z" /><glyph glyph-name="" unicode="¶" d="M585 -191 l0 903 l-319 0 q-105 0 -167 -52 q-62 -52 -64 -151 q3 -85 58 -142 q55 -57 132 -59 l0 -499 l130 0 l0 779 l100 0 l0 -779 l130 0 Z" /><glyph glyph-name="" unicode="&#x2022;" d="M409 334 q-2 69 -48 115 q-46 46 -115 48 q-69 -2 -115 -48 q-46 -46 -48 -115 q2 -69 48 -115 q46 -46 115 -48 q69 2 115 48 q46 46 48 115 l0 0 Z" /><glyph glyph-name="" unicode="&#x201a;" d="M204 0 l0 124 l-136 0 l0 -228 l136 104 Z" /><glyph glyph-name="" unicode="&#x201e;" d="M414 0 l0 124 l-136 0 l0 -228 l136 104 ZM203 0 l0 124 l-135 0 l0 -228 l135 104 Z" /><glyph glyph-name="" unicode="&#x201d;" d="M414 588 l0 124 l-136 0 l0 -227 l136 103 ZM203 588 l0 124 l-135 0 l0 -227 l135 103 Z" /><glyph glyph-name="" unicode="»" d="M595 275 l-250 248 l0 -155 l94 -93 l-94 -93 l0 -155 l250 248 ZM316 275 l-249 248 l0 -155 l95 -93 l-95 -93 l0 -155 l249 248 Z" /><glyph glyph-name="" unicode="&#x2026;" d="M786 84 q-1 37 -25 62 q-25 24 -62 25 q-37 -1 -61 -25 q-25 -25 -26 -62 q1 -37 26 -61 q24 -25 61 -26 q37 1 62 26 q24 24 25 61 l0 0 ZM510 84 q-1 37 -25 62 q-25 24 -62 25 q-37 -1 -61 -25 q-25 -25 -26 -62 q1 -37 26 -61 q24 -25 61 -26 q37 1 62 26 q24 24 25 61 l0 0 ZM235 84 q-1 37 -26 62 q-25 24 -62 25 q-37 -1 -61 -25 q-25 -25 -26 -62 q1 -37 26 -61 q24 -25 61 -26 q37 1 62 26 q25 24 26 61 l0 0 Z" /><glyph glyph-name="" unicode="&#x2030;" d="M1158 131 l0 99 q-2 68 -43 102 q-42 35 -102 35 q-61 0 -102 -35 q-41 -34 -43 -102 l0 -99 q2 -68 43 -102 q41 -35 102 -35 q60 0 102 35 q41 34 43 102 l0 0 ZM796 131 l0 99 q-2 68 -43 102 q-42 35 -102 35 q-61 0 -102 -35 q-41 -34 -43 -102 l0 -99 q2 -68 43 -102 q41 -35 102 -35 q60 0 102 35 q41 34 43 102 l0 0 ZM644 712 l-102 0 l-337 -712 l102 0 l337 712 ZM342 482 l0 99 q-2 68 -43 102 q-42 35 -102 35 q-61 0 -102 -35 q-41 -34 -43 -102 l0 -99 q2 -68 43 -102 q41 -35 102 -35 q60 0 102 35 q41 34 43 102 l0 0 ZM1064 134 q0 -28 -13 -42 q-14 -14 -38 -14 q-25 0 -38 14 q-13 15 -13 43 l0 91 q0 29 13 43 q13 14 38 14 q24 0 38 -14 q13 -14 13 -43 l0 -92 ZM702 135 q0 -28 -13 -43 q-14 -14 -38 -14 q-25 0 -38 14 q-13 15 -13 43 l0 91 q0 29 13 43 q13 14 38 14 q24 0 38 -14 q13 -14 13 -43 l0 -91 ZM248 486 q0 -28 -13 -43 q-14 -14 -38 -14 q-24 0 -37 14 q-14 15 -14 43 l0 91 q0 29 13 43 q13 14 38 14 q24 0 38 -14 q13 -14 13 -43 l0 -91 Z" /><glyph glyph-name="" unicode="¿" d="M341 446 q-1 33 -23 55 q-22 22 -55 23 q-33 -1 -56 -23 q-22 -22 -23 -55 q1 -33 23 -56 q23 -22 56 -23 q33 1 55 23 q22 23 23 56 l0 0 ZM478 4 l-130 0 q0 -35 -21 -59 q-20 -24 -60 -25 q-38 1 -59 23 q-21 23 -21 59 q0 17 9 34 q8 17 20 33 l74 95 q19 25 29 49 q9 23 9 55 l0 30 l-130 0 l0 -20 q0 -13 -5 -27 q-5 -14 -13 -24 l-74 -99 q-21 -27 -35 -58 q-14 -30 -14 -67 q3 -96 63 -148 q60 -51 147 -52 q89 1 149 54 q60 53 62 147 l0 0 Z" /><glyph glyph-name="" unicode="`" d="M305 604 l-64 170 l-137 0 l114 -170 l87 0 Z" /><glyph glyph-name="" unicode="´" d="M396 774 l-137 0 l-64 -170 l87 0 l114 170 Z" /><glyph glyph-name="" unicode="&#x2c6;" d="M434 604 l-132 169 l-104 0 l-132 -169 l101 0 l83 91 l83 -91 l101 0 Z" /><glyph glyph-name="" unicode="&#x2dc;" d="M430 674 l-58 57 q-19 -19 -33 -24 q-14 -6 -26 -5 q-15 0 -27 5 q-13 4 -28 13 q-20 13 -38 18 q-17 5 -39 5 q-28 0 -54 -13 q-26 -13 -58 -46 l56 -57 q19 19 33 24 q14 6 26 5 q15 0 28 -5 q14 -5 28 -13 q20 -12 38 -17 q18 -6 39 -6 q28 0 54 13 q27 13 59 46 l0 0 Z" /><glyph glyph-name="" unicode="¯" d="M408 630 l0 87 l-316 0 l0 -87 l316 0 Z" /><glyph glyph-name="" unicode="&#x2d8;" d="M414 742 l-87 0 q-4 -32 -26 -46 q-21 -14 -50 -14 q-29 0 -51 14 q-21 14 -26 46 l-88 0 q6 -80 52 -116 q47 -36 113 -35 q66 -1 112 35 q46 36 51 116 l0 0 Z" /><glyph glyph-name="" unicode="&#x2d9;" d="M317 608 l0 106 l-134 0 l0 -106 l134 0 Z" /><glyph glyph-name="" unicode="¨" d="M430 667 q-1 28 -20 47 q-19 19 -47 20 q-28 -1 -47 -20 q-19 -19 -20 -47 q1 -28 20 -47 q19 -19 47 -20 q28 1 47 20 q19 19 20 47 l0 0 ZM204 667 q-1 28 -20 47 q-19 19 -47 20 q-28 -1 -47 -20 q-19 -19 -20 -47 q1 -28 20 -47 q19 -19 47 -20 q28 1 47 20 q19 19 20 47 l0 0 Z" /><glyph glyph-name="" unicode="&#x2da;" d="M381 715 q-1 56 -38 93 q-38 37 -93 38 q-55 -1 -92 -38 q-38 -38 -39 -93 q1 -55 39 -92 q37 -38 92 -39 q55 1 93 39 q37 37 38 92 l0 0 ZM308 715 q-1 -25 -17 -41 q-16 -17 -41 -18 q-25 1 -41 18 q-16 16 -17 41 q1 25 17 41 q16 16 41 17 q25 -1 41 -17 q16 -16 17 -41 l0 0 Z" /><glyph glyph-name="" unicode="¸" d="M325 -60 l-96 0 l-69 -146 l121 0 l44 146 Z" /><glyph glyph-name="" unicode="&#x2dd;" d="M465 774 l-138 0 l-63 -170 l86 0 l115 170 ZM258 774 l-138 0 l-63 -170 l87 0 l114 170 Z" /><glyph glyph-name="" unicode="&#x2db;" d="M334 -206 l-68 146 l-97 0 l44 -146 l121 0 Z" /><glyph glyph-name="" unicode="&#x2c7;" d="M434 773 l-101 0 l-83 -90 l-83 90 l-101 0 l132 -169 l104 0 l132 169 Z" /><glyph glyph-name="" unicode="&#x2014;" d="M968 226 l0 125 l-909 0 l0 -125 l909 0 Z" /><glyph glyph-name="" unicode="Æ" d="M926 0 l0 124 l-330 0 l0 172 l282 0 l0 124 l-282 0 l0 168 l330 0 l0 124 l-551 0 l-372 -712 l149 0 l81 156 l225 0 l0 -156 l468 0 ZM458 273 l-165 0 l165 315 l0 -315 Z" /><glyph glyph-name="" unicode="ª" d="M392 296 l0 274 q0 73 -45 110 q-45 37 -132 37 q-51 1 -86 -12 q-35 -13 -65 -46 l67 -65 q16 19 33 26 q18 8 46 8 q41 0 59 -16 q18 -15 18 -49 l0 -20 l-97 0 q-73 -1 -107 -36 q-35 -34 -35 -85 q0 -28 9 -51 q9 -24 26 -41 q18 -19 44 -28 q26 -10 61 -10 q35 0 58 10 q23 9 43 30 l0 -36 l103 0 ZM287 449 q0 -19 -3 -31 q-4 -13 -12 -20 q-12 -12 -28 -15 q-15 -4 -37 -4 q-29 0 -43 13 q-14 12 -14 33 q0 21 14 34 q14 13 42 13 l81 0 l0 -23 Z" /><glyph glyph-name="" unicode="&#x141;" d="M563 0 l0 124 l-323 0 l0 208 l128 81 l0 115 l-128 -81 l0 265 l-139 0 l0 -352 l-64 -41 l0 -116 l64 41 l0 -244 l462 0 Z" /><glyph glyph-name="" unicode="Ø" d="M585 356 q2 92 -8 161 q-11 70 -63 123 l-5 5 l53 111 l-98 0 l-29 -60 q-25 11 -53 17 q-28 5 -60 5 q-61 0 -108 -20 q-48 -20 -85 -58 q-52 -53 -62 -123 q-10 -69 -8 -161 q-2 -92 8 -161 q10 -70 62 -123 l5 -5 l-53 -111 l99 0 l29 60 q25 -11 53 -17 q28 -5 60 -5 q60 0 108 20 q47 20 84 58 q52 53 63 123 q10 69 8 161 l0 0 ZM385 578 l-178 -373 q-5 21 -7 57 q-2 36 -2 94 q0 100 7 140 q7 41 27 60 q15 17 38 28 q23 10 52 10 q36 0 63 -16 l0 0 ZM446 356 q0 -100 -7 -140 q-8 -41 -28 -60 q-15 -17 -38 -28 q-22 -10 -51 -10 q-18 0 -34 4 q-16 5 -30 13 l178 372 q5 -21 8 -57 q2 -36 2 -94 l0 0 Z" /><glyph glyph-name="" unicode="&#x152;" d="M912 0 l0 123 l-328 0 q0 27 1 88 q0 60 0 87 l278 0 l0 122 l-278 0 q0 27 0 85 q-1 57 -1 84 l327 0 l0 123 l-465 0 l0 -44 q-26 27 -60 39 q-34 11 -68 11 q-60 0 -106 -19 q-46 -18 -83 -56 q-51 -53 -62 -124 q-10 -71 -8 -163 q-2 -92 8 -163 q11 -71 62 -124 q37 -37 83 -56 q46 -19 106 -19 q32 0 67 12 q35 11 61 38 l0 -44 l466 0 ZM446 356 q0 -100 -7 -140 q-8 -41 -28 -60 q-15 -17 -38 -28 q-22 -10 -51 -10 q-29 0 -52 10 q-23 11 -38 28 q-20 19 -27 60 q-7 40 -7 140 q0 100 7 140 q7 41 27 60 q15 17 38 28 q23 10 52 10 q29 0 51 -10 q23 -11 38 -28 q20 -19 28 -60 q7 -40 7 -140 l0 0 Z" /><glyph glyph-name="" unicode="º" d="M407 504 q1 56 -10 94 q-10 39 -38 68 q-19 21 -51 36 q-31 14 -77 15 q-46 -1 -77 -15 q-32 -15 -51 -36 q-28 -29 -38 -68 q-11 -38 -10 -94 q-1 -56 10 -94 q10 -38 38 -67 q19 -21 51 -36 q31 -14 77 -15 q46 1 77 15 q32 15 51 36 q28 29 38 67 q11 38 10 94 l0 0 ZM302 504 q1 -32 -4 -58 q-4 -26 -19 -42 q-18 -18 -48 -18 q-30 0 -48 18 q-15 16 -19 42 q-5 26 -4 58 q-1 32 4 58 q4 27 19 43 q18 18 48 18 q30 0 48 -18 q15 -16 19 -43 q5 -26 4 -58 l0 0 Z" /><glyph glyph-name="" unicode="æ" d="M791 220 l0 58 q-1 109 -59 178 q-59 69 -168 71 q-45 0 -83 -14 q-37 -14 -65 -43 q-26 29 -69 43 q-42 14 -102 14 q-64 1 -107 -15 q-44 -16 -81 -57 l83 -81 q19 23 41 33 q22 10 59 10 q51 0 74 -20 q23 -19 23 -62 l0 -26 l-123 0 q-91 -2 -134 -44 q-44 -43 -44 -107 q0 -35 11 -65 q11 -30 32 -52 q23 -23 56 -35 q33 -12 77 -12 q54 -1 98 13 q43 15 85 60 q35 -39 83 -56 q47 -17 100 -17 q69 0 114 21 q46 21 84 61 l-79 77 q-24 -25 -50 -37 q-26 -12 -68 -12 q-55 1 -84 33 q-30 32 -30 83 l326 0 ZM663 309 l-198 0 q1 17 3 30 q3 12 9 26 q11 24 32 39 q22 15 55 15 q33 0 55 -15 q22 -15 32 -39 q6 -14 9 -26 q2 -13 3 -30 l0 0 ZM337 192 q0 -24 -4 -40 q-5 -16 -15 -26 q-17 -16 -36 -21 q-19 -4 -46 -4 q-38 0 -57 17 q-18 16 -18 43 q0 28 19 43 q19 16 54 16 l103 0 l0 -28 Z" /><glyph glyph-name="" unicode="&#x131;" d="M203 0 l0 521 l-130 0 l0 -521 l130 0 Z" /><glyph glyph-name="" unicode="&#x142;" d="M309 0 l0 110 l-50 0 q-24 0 -35 12 q-10 12 -10 35 l0 223 l60 38 l0 109 l-60 -37 l0 222 l-130 0 l0 -300 l-54 -34 l0 -109 l54 33 l0 -153 q-1 -58 35 -102 q36 -45 116 -47 l74 0 Z" /><glyph glyph-name="" unicode="ø" d="M492 261 q2 72 -7 125 q-8 54 -52 77 l-2 1 l60 101 l-80 0 l-35 -60 q-42 22 -105 22 q-58 -1 -97 -19 q-40 -19 -64 -45 q-35 -36 -47 -84 q-13 -48 -12 -118 q-1 -71 12 -119 q12 -49 47 -84 l1 -1 l-59 -101 l79 0 l36 61 q21 -11 47 -17 q26 -6 57 -6 q58 1 98 19 q40 19 64 45 q35 36 47 84 q13 49 12 119 l0 0 ZM320 397 l-132 -222 q-4 18 -6 40 q-1 22 -1 46 q-1 41 5 73 q5 32 25 53 q11 11 26 17 q15 6 34 6 q14 0 27 -3 q12 -4 22 -10 l0 0 ZM362 261 q1 -41 -5 -74 q-5 -32 -25 -53 q-22 -23 -61 -23 q-28 1 -48 13 l131 222 q4 -18 6 -39 q2 -22 2 -46 l0 0 Z" /><glyph glyph-name="" unicode="&#x153;" d="M816 220 l0 58 q-1 109 -59 178 q-59 69 -168 71 q-49 0 -89 -18 q-40 -17 -68 -51 q-24 31 -65 50 q-40 18 -96 19 q-58 -1 -97 -19 q-40 -19 -64 -45 q-35 -36 -47 -84 q-13 -48 -12 -118 q-1 -70 12 -119 q12 -48 47 -84 q24 -26 64 -45 q39 -18 97 -19 q54 0 94 18 q40 18 64 48 q33 -36 78 -51 q45 -15 96 -15 q69 0 114 21 q46 21 84 61 l-80 77 q-24 -25 -49 -37 q-26 -12 -68 -12 q-55 1 -84 33 q-30 32 -30 83 l326 0 ZM687 309 l-197 0 q1 17 3 30 q2 12 8 26 q11 24 33 39 q22 15 55 15 q33 0 55 -15 q22 -15 32 -39 q6 -14 8 -26 q2 -13 3 -30 l0 0 ZM362 261 q1 -41 -5 -74 q-5 -32 -25 -53 q-22 -23 -61 -23 q-19 0 -34 6 q-15 6 -26 17 q-20 21 -25 53 q-6 33 -5 74 q-1 41 5 73 q5 32 25 53 q11 11 26 17 q15 6 34 6 q39 0 61 -23 q20 -21 25 -53 q6 -32 5 -73 l0 0 Z" /><glyph glyph-name="" unicode="ß" d="M516 161 l0 160 q0 46 -17 71 q-17 25 -45 38 q24 14 42 41 q18 27 19 72 q-2 90 -61 133 q-60 42 -156 42 q-99 1 -161 -46 q-62 -47 -64 -151 l0 -521 l130 0 l0 511 q-1 45 20 69 q21 25 73 25 q47 0 70 -21 q9 -8 14 -20 q5 -11 5 -25 q-1 -31 -18 -46 q-17 -14 -42 -14 l-28 0 l0 -102 l28 0 q14 0 26 -4 q11 -4 19 -12 q8 -7 11 -18 q4 -11 4 -27 l0 -144 q0 -32 -17 -47 q-8 -7 -19 -11 q-11 -4 -26 -4 l-26 0 l0 -110 l52 0 q43 0 74 11 q31 10 52 31 q21 20 31 51 q10 30 10 68 l0 0 Z" /><glyph glyph-name="" unicode="Ð" d="M623 356 q2 93 -6 155 q-9 62 -57 117 q-37 42 -87 63 q-50 21 -110 21 l-257 0 l0 -299 l-69 0 l0 -106 l69 0 l0 -307 l255 0 q63 0 113 22 q51 22 86 61 q47 53 56 115 q9 62 7 158 l0 0 ZM484 354 q0 -92 -4 -126 q-4 -34 -19 -52 q-16 -25 -44 -39 q-27 -14 -67 -14 l-105 0 l0 184 l116 0 l0 106 l-116 0 l0 176 l105 0 q39 0 65 -13 q26 -13 44 -39 q15 -19 20 -56 q5 -36 5 -127 l0 0 Z" /><glyph glyph-name="" unicode="ð" d="M486 254 q1 70 -13 120 q-13 50 -49 118 l-40 77 l46 0 l0 91 l-92 0 l-31 60 l-139 0 l31 -60 l-68 0 l0 -91 l114 0 l34 -62 q-20 2 -39 0 q-19 -2 -37 -7 q-28 -8 -50 -20 q-23 -12 -39 -29 q-34 -35 -46 -82 q-13 -47 -12 -115 q-1 -68 12 -115 q12 -48 46 -83 q24 -26 62 -43 q39 -18 95 -19 q56 1 95 19 q38 17 62 43 q34 35 46 83 q13 47 12 115 l0 0 ZM356 254 q1 -39 -4 -70 q-5 -31 -23 -51 q-11 -11 -25 -16 q-15 -6 -33 -6 q-36 1 -57 22 q-18 20 -23 51 q-6 31 -5 70 q-1 39 5 69 q5 31 23 51 q21 22 57 22 q18 0 33 -6 q14 -5 25 -16 q18 -20 23 -51 q5 -30 4 -69 l0 0 Z" /><glyph glyph-name="" unicode="&#x160;" d="M543 210 q0 47 -13 86 q-14 38 -42 65 q-22 21 -55 35 q-33 13 -81 20 l-84 12 q-22 3 -39 11 q-16 7 -27 17 q-11 11 -16 24 q-5 13 -5 27 q0 38 27 63 q28 26 83 27 q36 1 74 -8 q38 -10 72 -41 l88 87 q-45 44 -101 64 q-56 19 -129 19 q-117 -2 -182 -60 q-65 -59 -66 -156 q0 -89 51 -140 q24 -23 58 -38 q34 -14 80 -21 l86 -12 q24 -4 39 -9 q14 -6 24 -16 q11 -11 17 -26 q5 -15 5 -34 q0 -43 -32 -65 q-32 -23 -94 -23 q-50 0 -94 13 q-44 14 -78 47 l-90 -90 q52 -52 116 -74 q63 -21 144 -20 q114 1 188 56 q73 56 76 160 l0 0 ZM478 950 l-101 0 l-83 -90 l-83 90 l-101 0 l132 -169 l104 0 l132 169 Z" /><glyph glyph-name="" unicode="&#x161;" d="M465 164 q0 66 -39 106 q-39 39 -116 47 l-82 8 q-34 4 -44 17 q-11 13 -10 28 q0 20 18 35 q17 14 56 15 q34 0 66 -7 q32 -8 55 -28 l80 81 q-38 35 -88 48 q-50 14 -111 13 q-82 0 -140 -42 q-58 -43 -61 -124 q1 -71 41 -106 q40 -34 111 -40 l82 -8 q30 -3 43 -16 q12 -12 12 -32 q-2 -29 -29 -42 q-28 -12 -63 -12 q-31 -1 -68 8 q-38 10 -71 41 l-85 -85 q50 -48 105 -62 q56 -14 117 -13 q95 0 157 42 q62 42 64 128 l0 0 ZM434 773 l-101 0 l-83 -90 l-83 90 l-101 0 l132 -169 l104 0 l132 169 Z" /><glyph glyph-name="" unicode="Ý" d="M569 712 l-151 0 l-131 -287 l-133 287 l-151 0 l214 -420 l0 -292 l138 0 l0 292 l214 420 ZM431 951 l-137 0 l-64 -170 l87 0 l114 170 Z" /><glyph glyph-name="" unicode="ý" d="M490 521 l-137 0 l-104 -322 l-108 322 l-137 0 l178 -484 l-22 -64 q-9 -28 -23 -38 q-15 -10 -42 -9 l-30 0 l0 -117 l51 0 q32 0 61 9 q28 9 51 31 q12 12 21 29 q10 16 18 38 l223 605 ZM390 774 l-137 0 l-64 -170 l87 0 l114 170 Z" /><glyph glyph-name="" unicode="Þ" d="M594 360 q-1 93 -62 156 q-62 63 -173 65 l-137 0 l0 131 l-139 0 l0 -712 l139 0 l0 138 l137 0 q111 3 173 66 q61 63 62 156 l0 0 ZM455 360 q-1 -44 -28 -71 q-27 -26 -75 -27 l-130 0 l0 195 l130 0 q48 -1 75 -27 q27 -26 28 -70 l0 0 Z" /><glyph glyph-name="" unicode="þ" d="M509 261 q2 60 -7 119 q-9 60 -46 100 q-22 22 -55 34 q-33 13 -72 13 q-39 0 -70 -12 q-31 -12 -56 -40 l0 237 l-130 0 l0 -903 l130 0 l0 237 q25 -28 56 -40 q31 -12 70 -12 q39 0 72 13 q33 12 55 34 q37 41 46 100 q9 60 7 120 l0 0 ZM379 261 q2 -65 -15 -107 q-16 -42 -73 -43 q-57 1 -73 43 q-17 42 -15 107 q-2 65 15 106 q16 42 73 43 q57 -1 73 -43 q17 -41 15 -106 l0 0 Z" /><glyph glyph-name="" unicode="&#x17d;" d="M508 0 l0 124 l-305 0 l305 478 l0 110 l-455 0 l0 -124 l291 0 l-304 -476 l0 -112 l468 0 ZM461 950 l-101 0 l-83 -90 l-83 90 l-101 0 l132 -169 l104 0 l132 169 Z" /><glyph glyph-name="" unicode="&#x17e;" d="M434 0 l0 117 l-234 0 l234 305 l0 99 l-384 0 l0 -117 l218 0 l-231 -305 l0 -99 l397 0 ZM426 773 l-101 0 l-83 -90 l-83 90 l-101 0 l132 -169 l104 0 l132 169 Z" /><glyph glyph-name="" unicode="½" d="M819 0 l0 85 l-157 0 l105 114 q25 26 38 49 q14 23 14 55 q-1 61 -39 94 q-37 34 -97 34 q-58 0 -96 -33 q-39 -33 -40 -96 l95 0 q1 26 13 35 q12 10 28 9 q20 0 32 -12 q11 -11 11 -31 q0 -13 -5 -24 q-6 -11 -18 -23 l-156 -171 l0 -85 l272 0 ZM620 712 l-101 0 l-337 -712 l101 0 l337 712 ZM223 285 l0 427 l-95 0 l-90 -78 l0 -106 l90 78 l0 -321 l95 0 Z" /><glyph glyph-name="" unicode="¼" d="M796 57 l0 89 l-33 0 l0 62 l-90 0 l0 -62 l-74 0 l144 281 l-103 0 l-143 -281 l0 -89 l176 0 l0 -57 l90 0 l0 57 l33 0 ZM625 712 l-102 0 l-337 -712 l102 0 l337 712 ZM223 285 l0 427 l-95 0 l-90 -78 l0 -106 l90 78 l0 -321 l95 0 Z" /><glyph glyph-name="" unicode="¹" d="M223 285 l0 427 l-95 0 l-90 -78 l0 -106 l90 78 l0 -321 l95 0 Z" /><glyph glyph-name="" unicode="¾" d="M825 57 l0 89 l-33 0 l0 62 l-90 0 l0 -62 l-74 0 l144 281 l-103 0 l-143 -281 l0 -89 l176 0 l0 -57 l90 0 l0 57 l33 0 ZM657 712 l-102 0 l-337 -712 l102 0 l337 712 ZM325 412 q-1 38 -16 60 q-14 22 -34 34 q18 10 31 30 q13 19 14 54 q-1 56 -39 91 q-37 34 -97 35 q-58 -1 -96 -34 q-39 -33 -40 -93 l94 0 q0 20 12 31 q12 11 30 11 q17 0 29 -11 q12 -11 13 -33 q0 -16 -10 -29 q-11 -13 -34 -14 l-13 0 l0 -81 l13 0 q23 0 36 -13 q13 -14 13 -35 q0 -24 -13 -37 q-13 -13 -34 -13 q-20 0 -33 12 q-13 12 -14 36 l-94 0 q2 -70 44 -101 q42 -32 97 -31 q58 0 99 32 q40 32 42 99 l0 0 Z" /><glyph glyph-name="" unicode="³" d="M325 412 q-1 38 -16 60 q-14 22 -34 34 q18 10 31 30 q13 19 14 54 q-1 56 -39 91 q-37 34 -97 35 q-58 -1 -96 -34 q-39 -33 -40 -93 l94 0 q0 20 12 31 q12 11 30 11 q17 0 29 -11 q12 -11 13 -33 q0 -16 -10 -29 q-11 -13 -34 -14 l-13 0 l0 -81 l13 0 q23 0 36 -13 q13 -14 13 -35 q0 -24 -13 -37 q-13 -13 -34 -13 q-20 0 -33 12 q-13 12 -14 36 l-94 0 q2 -70 44 -101 q42 -32 97 -31 q58 0 99 32 q40 32 42 99 l0 0 Z" /><glyph glyph-name="" unicode="²" d="M315 285 l0 85 l-157 0 l105 114 q25 26 38 49 q14 23 14 55 q-1 61 -39 94 q-37 34 -97 34 q-58 0 -96 -33 q-39 -33 -40 -96 l94 0 q1 26 14 35 q12 10 28 9 q20 0 31 -12 q11 -11 11 -31 q0 -13 -5 -24 q-5 -11 -17 -23 l-156 -171 l0 -85 l272 0 Z" /><glyph glyph-name="" unicode="¦" d="M240 436 l0 350 l-130 0 l0 -350 l130 0 ZM240 -74 l0 350 l-130 0 l0 -350 l130 0 Z" /><glyph glyph-name="" unicode="&#x2212;" d="M493 225 l0 121 l-443 0 l0 -121 l443 0 Z" /><glyph glyph-name="" unicode="×" d="M494 145 l-141 141 l141 141 l-82 82 l-141 -141 l-140 141 l-82 -82 l141 -141 l-141 -141 l82 -82 l140 141 l141 -141 l82 82 Z" /><glyph glyph-name="" unicode="Ä" d="M633 0 l-260 712 l-109 0 l-259 -712 l145 0 l43 126 l253 0 l42 -126 l145 0 ZM409 243 l-177 0 l90 259 l87 -259 ZM497 844 q-1 28 -20 47 q-19 19 -47 20 q-28 -1 -47 -20 q-19 -19 -20 -47 q1 -28 20 -47 q19 -19 47 -20 q28 1 47 20 q19 19 20 47 l0 0 ZM271 844 q-1 28 -20 47 q-19 19 -47 20 q-28 -1 -47 -20 q-19 -19 -20 -47 q1 -28 20 -47 q19 -19 47 -20 q28 1 47 20 q19 19 20 47 l0 0 Z" /><glyph glyph-name="" unicode="Å" d="M633 0 l-260 712 l-109 0 l-259 -712 l145 0 l43 126 l253 0 l42 -126 l145 0 ZM409 243 l-177 0 l90 259 l87 -259 ZM448 884 q-1 56 -38 93 q-38 37 -93 38 q-55 -1 -92 -38 q-38 -38 -39 -93 q1 -55 39 -92 q37 -38 92 -39 q55 1 93 39 q37 37 38 92 l0 0 ZM375 884 q-1 -25 -17 -41 q-16 -17 -41 -18 q-25 1 -41 18 q-16 16 -17 41 q1 25 17 41 q16 16 41 17 q25 -1 41 -17 q16 -16 17 -41 l0 0 Z" /><glyph glyph-name="" unicode="Ç" d="M519 76 l-92 92 q-22 -23 -46 -37 q-23 -13 -60 -13 q-29 0 -51 10 q-22 10 -37 27 q-20 19 -28 60 q-7 41 -7 141 q0 100 7 141 q8 41 28 60 q15 17 37 27 q22 10 51 10 q37 0 60 -13 q24 -14 46 -37 l92 92 q-37 38 -84 60 q-47 22 -114 22 q-58 0 -106 -20 q-48 -20 -86 -58 q-52 -53 -62 -123 q-10 -69 -8 -161 q-2 -92 8 -161 q10 -70 62 -123 q38 -38 86 -58 q48 -20 106 -20 q67 0 114 22 q47 22 84 60 l0 0 ZM379 -60 l-96 0 l-69 -146 l121 0 l44 146 Z" /><glyph glyph-name="" unicode="É" d="M552 0 l0 124 l-330 0 l0 173 l281 0 l0 124 l-281 0 l0 167 l330 0 l0 124 l-469 0 l0 -712 l469 0 ZM455 951 l-137 0 l-64 -170 l87 0 l114 170 Z" /><glyph glyph-name="" unicode="Ñ" d="M628 0 l0 712 l-139 0 l0 -436 l-282 436 l-124 0 l0 -712 l139 0 l0 437 l282 -437 l124 0 ZM536 851 l-58 57 q-19 -19 -33 -24 q-14 -6 -26 -5 q-15 0 -27 5 q-13 4 -28 13 q-20 13 -38 18 q-17 5 -39 5 q-28 0 -54 -13 q-26 -13 -58 -46 l56 -57 q19 19 33 24 q14 6 26 5 q15 0 28 -5 q14 -5 28 -13 q20 -12 38 -17 q18 -6 39 -6 q28 0 54 13 q27 13 59 46 l0 0 Z" /><glyph glyph-name="" unicode="Ö" d="M585 356 q2 92 -8 161 q-11 70 -63 123 q-37 38 -84 58 q-48 20 -108 20 q-61 0 -108 -20 q-48 -20 -85 -58 q-52 -53 -62 -123 q-10 -69 -8 -161 q-2 -92 8 -161 q10 -70 62 -123 q37 -38 85 -58 q47 -20 108 -20 q60 0 108 20 q47 20 84 58 q52 53 63 123 q10 69 8 161 l0 0 ZM446 356 q0 -100 -7 -140 q-8 -41 -28 -60 q-15 -17 -38 -28 q-22 -10 -51 -10 q-29 0 -52 10 q-23 11 -38 28 q-20 19 -27 60 q-7 40 -7 140 q0 100 7 140 q7 41 27 60 q15 17 38 28 q23 10 52 10 q29 0 51 -10 q23 -11 38 -28 q20 -19 28 -60 q7 -40 7 -140 l0 0 ZM502 844 q-1 28 -20 47 q-19 19 -47 20 q-28 -1 -47 -20 q-19 -19 -20 -47 q1 -28 20 -47 q19 -19 47 -20 q28 1 47 20 q19 19 20 47 l0 0 ZM276 844 q-1 28 -20 47 q-19 19 -47 20 q-28 -1 -47 -20 q-19 -19 -20 -47 q1 -28 20 -47 q19 -19 47 -20 q28 1 47 20 q19 19 20 47 l0 0 Z" /><glyph glyph-name="" unicode="Ü" d="M596 244 l0 468 l-138 0 l0 -463 q-1 -62 -34 -96 q-33 -34 -90 -35 q-57 1 -90 35 q-32 34 -33 96 l0 463 l-139 0 l0 -468 q3 -115 76 -182 q74 -67 186 -68 q112 1 186 68 q73 67 76 182 l0 0 ZM514 844 q-1 28 -20 47 q-19 19 -47 20 q-28 -1 -47 -20 q-19 -19 -20 -47 q1 -28 20 -47 q19 -19 47 -20 q28 1 47 20 q19 19 20 47 l0 0 ZM288 844 q-1 28 -20 47 q-19 19 -47 20 q-28 -1 -47 -20 q-19 -19 -20 -47 q1 -28 20 -47 q19 -19 47 -20 q28 1 47 20 q19 19 20 47 l0 0 Z" /><glyph glyph-name="" unicode="á" d="M467 0 l0 343 q0 92 -56 138 q-56 46 -166 46 q-64 1 -107 -15 q-44 -16 -81 -57 l83 -81 q19 23 41 33 q22 10 59 10 q51 0 74 -20 q23 -19 23 -62 l0 -26 l-123 0 q-91 -2 -134 -44 q-44 -43 -44 -107 q0 -35 11 -65 q11 -30 32 -52 q23 -23 56 -35 q33 -11 77 -11 q44 0 73 12 q30 12 55 38 l0 -45 l127 0 ZM337 192 q0 -24 -4 -40 q-5 -16 -15 -26 q-17 -16 -36 -21 q-19 -4 -46 -4 q-38 0 -57 17 q-18 16 -18 43 q0 28 19 43 q19 16 54 16 l103 0 l0 -28 ZM407 774 l-137 0 l-64 -170 l87 0 l114 170 Z" /><glyph glyph-name="" unicode="à" d="M467 0 l0 343 q0 92 -56 138 q-56 46 -166 46 q-64 1 -107 -15 q-44 -16 -81 -57 l83 -81 q19 23 41 33 q22 10 59 10 q51 0 74 -20 q23 -19 23 -62 l0 -26 l-123 0 q-91 -2 -134 -44 q-44 -43 -44 -107 q0 -35 11 -65 q11 -30 32 -52 q23 -23 56 -35 q33 -11 77 -11 q44 0 73 12 q30 12 55 38 l0 -45 l127 0 ZM337 192 q0 -24 -4 -40 q-5 -16 -15 -26 q-17 -16 -36 -21 q-19 -4 -46 -4 q-38 0 -57 17 q-18 16 -18 43 q0 28 19 43 q19 16 54 16 l103 0 l0 -28 ZM316 604 l-64 170 l-137 0 l114 -170 l87 0 Z" /><glyph glyph-name="" unicode="â" d="M467 0 l0 343 q0 92 -56 138 q-56 46 -166 46 q-64 1 -107 -15 q-44 -16 -81 -57 l83 -81 q19 23 41 33 q22 10 59 10 q51 0 74 -20 q23 -19 23 -62 l0 -26 l-123 0 q-91 -2 -134 -44 q-44 -43 -44 -107 q0 -35 11 -65 q11 -30 32 -52 q23 -23 56 -35 q33 -11 77 -11 q44 0 73 12 q30 12 55 38 l0 -45 l127 0 ZM337 192 q0 -24 -4 -40 q-5 -16 -15 -26 q-17 -16 -36 -21 q-19 -4 -46 -4 q-38 0 -57 17 q-18 16 -18 43 q0 28 19 43 q19 16 54 16 l103 0 l0 -28 ZM445 604 l-132 169 l-104 0 l-132 -169 l101 0 l83 91 l83 -91 l101 0 Z" /><glyph glyph-name="" unicode="ä" d="M467 0 l0 343 q0 92 -56 138 q-56 46 -166 46 q-64 1 -107 -15 q-44 -16 -81 -57 l83 -81 q19 23 41 33 q22 10 59 10 q51 0 74 -20 q23 -19 23 -62 l0 -26 l-123 0 q-91 -2 -134 -44 q-44 -43 -44 -107 q0 -35 11 -65 q11 -30 32 -52 q23 -23 56 -35 q33 -11 77 -11 q44 0 73 12 q30 12 55 38 l0 -45 l127 0 ZM337 192 q0 -24 -4 -40 q-5 -16 -15 -26 q-17 -16 -36 -21 q-19 -4 -46 -4 q-38 0 -57 17 q-18 16 -18 43 q0 28 19 43 q19 16 54 16 l103 0 l0 -28 ZM441 667 q-1 28 -20 47 q-19 19 -47 20 q-28 -1 -47 -20 q-19 -19 -20 -47 q1 -28 20 -47 q19 -19 47 -20 q28 1 47 20 q19 19 20 47 l0 0 ZM215 667 q-1 28 -20 47 q-19 19 -47 20 q-28 -1 -47 -20 q-19 -19 -20 -47 q1 -28 20 -47 q19 -19 47 -20 q28 1 47 20 q19 19 20 47 l0 0 Z" /><glyph glyph-name="" unicode="ã" d="M467 0 l0 343 q0 92 -56 138 q-56 46 -166 46 q-64 1 -107 -15 q-44 -16 -81 -57 l83 -81 q19 23 41 33 q22 10 59 10 q51 0 74 -20 q23 -19 23 -62 l0 -26 l-123 0 q-91 -2 -134 -44 q-44 -43 -44 -107 q0 -35 11 -65 q11 -30 32 -52 q23 -23 56 -35 q33 -11 77 -11 q44 0 73 12 q30 12 55 38 l0 -45 l127 0 ZM337 192 q0 -24 -4 -40 q-5 -16 -15 -26 q-17 -16 -36 -21 q-19 -4 -46 -4 q-38 0 -57 17 q-18 16 -18 43 q0 28 19 43 q19 16 54 16 l103 0 l0 -28 ZM441 674 l-58 57 q-19 -19 -33 -24 q-14 -6 -26 -5 q-15 0 -27 5 q-13 4 -28 13 q-20 13 -38 18 q-17 5 -39 5 q-28 0 -54 -13 q-26 -13 -58 -46 l56 -57 q19 19 33 24 q14 6 26 5 q15 0 28 -5 q14 -5 28 -13 q20 -12 38 -17 q18 -6 39 -6 q28 0 54 13 q27 13 59 46 l0 0 Z" /><glyph glyph-name="" unicode="å" d="M467 0 l0 343 q0 92 -56 138 q-56 46 -166 46 q-64 1 -107 -15 q-44 -16 -81 -57 l83 -81 q19 23 41 33 q22 10 59 10 q51 0 74 -20 q23 -19 23 -62 l0 -26 l-123 0 q-91 -2 -134 -44 q-44 -43 -44 -107 q0 -35 11 -65 q11 -30 32 -52 q23 -23 56 -35 q33 -11 77 -11 q44 0 73 12 q30 12 55 38 l0 -45 l127 0 ZM337 192 q0 -24 -4 -40 q-5 -16 -15 -26 q-17 -16 -36 -21 q-19 -4 -46 -4 q-38 0 -57 17 q-18 16 -18 43 q0 28 19 43 q19 16 54 16 l103 0 l0 -28 ZM392 715 q-1 56 -38 93 q-38 37 -93 38 q-55 -1 -92 -38 q-38 -38 -39 -93 q1 -55 39 -92 q37 -38 92 -39 q55 1 93 39 q37 37 38 92 l0 0 ZM319 715 q-1 -25 -17 -41 q-16 -17 -41 -18 q-25 1 -41 18 q-16 16 -17 41 q1 25 17 41 q16 16 41 17 q25 -1 41 -17 q16 -16 17 -41 l0 0 Z" /><glyph glyph-name="" unicode="ç" d="M452 65 l-88 87 q-20 -22 -39 -31 q-20 -10 -45 -10 q-23 0 -41 8 q-19 9 -33 26 q-15 19 -22 47 q-7 28 -7 69 q0 41 7 69 q7 28 22 46 q14 17 33 26 q18 8 41 8 q25 0 45 -10 q19 -9 39 -31 l88 88 q-34 36 -76 53 q-42 17 -96 17 q-83 3 -155 -54 q-73 -57 -78 -212 q5 -155 78 -213 q72 -57 155 -54 q54 0 96 18 q42 17 76 53 l0 0 ZM325 -60 l-96 0 l-69 -146 l121 0 l44 146 Z" /><glyph glyph-name="" unicode="é" d="M501 220 l0 58 q-1 109 -59 178 q-59 69 -168 71 q-103 -1 -164 -69 q-61 -69 -63 -197 q4 -155 74 -213 q71 -57 167 -54 q69 0 114 21 q46 21 84 61 l-79 77 q-24 -25 -50 -37 q-26 -12 -68 -12 q-55 1 -84 33 q-30 32 -30 83 l326 0 ZM373 309 l-198 0 q1 17 3 30 q3 12 9 26 q11 24 32 39 q22 15 55 15 q33 0 55 -15 q22 -15 32 -39 q6 -14 9 -26 q2 -13 3 -30 l0 0 ZM423 774 l-137 0 l-64 -170 l87 0 l114 170 Z" /><glyph glyph-name="" unicode="è" d="M501 220 l0 58 q-1 109 -59 178 q-59 69 -168 71 q-103 -1 -164 -69 q-61 -69 -63 -197 q4 -155 74 -213 q71 -57 167 -54 q69 0 114 21 q46 21 84 61 l-79 77 q-24 -25 -50 -37 q-26 -12 -68 -12 q-55 1 -84 33 q-30 32 -30 83 l326 0 ZM373 309 l-198 0 q1 17 3 30 q3 12 9 26 q11 24 32 39 q22 15 55 15 q33 0 55 -15 q22 -15 32 -39 q6 -14 9 -26 q2 -13 3 -30 l0 0 ZM332 604 l-64 170 l-137 0 l114 -170 l87 0 Z" /><glyph glyph-name="" unicode="ê" d="M501 220 l0 58 q-1 109 -59 178 q-59 69 -168 71 q-103 -1 -164 -69 q-61 -69 -63 -197 q4 -155 74 -213 q71 -57 167 -54 q69 0 114 21 q46 21 84 61 l-79 77 q-24 -25 -50 -37 q-26 -12 -68 -12 q-55 1 -84 33 q-30 32 -30 83 l326 0 ZM373 309 l-198 0 q1 17 3 30 q3 12 9 26 q11 24 32 39 q22 15 55 15 q33 0 55 -15 q22 -15 32 -39 q6 -14 9 -26 q2 -13 3 -30 l0 0 ZM461 604 l-132 169 l-104 0 l-132 -169 l101 0 l83 91 l83 -91 l101 0 Z" /><glyph glyph-name="" unicode="ë" d="M501 220 l0 58 q-1 109 -59 178 q-59 69 -168 71 q-103 -1 -164 -69 q-61 -69 -63 -197 q4 -155 74 -213 q71 -57 167 -54 q69 0 114 21 q46 21 84 61 l-79 77 q-24 -25 -50 -37 q-26 -12 -68 -12 q-55 1 -84 33 q-30 32 -30 83 l326 0 ZM373 309 l-198 0 q1 17 3 30 q3 12 9 26 q11 24 32 39 q22 15 55 15 q33 0 55 -15 q22 -15 32 -39 q6 -14 9 -26 q2 -13 3 -30 l0 0 ZM457 667 q-1 28 -20 47 q-19 19 -47 20 q-28 -1 -47 -20 q-19 -19 -20 -47 q1 -28 20 -47 q19 -19 47 -20 q28 1 47 20 q19 19 20 47 l0 0 ZM231 667 q-1 28 -20 47 q-19 19 -47 20 q-28 -1 -47 -20 q-19 -19 -20 -47 q1 -28 20 -47 q19 -19 47 -20 q28 1 47 20 q19 19 20 47 l0 0 Z" /><glyph glyph-name="" unicode="í" d="M203 0 l0 521 l-130 0 l0 -521 l130 0 ZM274 774 l-137 0 l-64 -170 l87 0 l114 170 Z" /><glyph glyph-name="" unicode="ì" d="M203 0 l0 521 l-130 0 l0 -521 l130 0 ZM274 604 l-64 170 l-137 0 l114 -170 l87 0 Z" /><glyph glyph-name="" unicode="î" d="M203 0 l0 521 l-130 0 l0 -521 l130 0 ZM441 604 l-132 169 l-104 0 l-132 -169 l101 0 l83 91 l83 -91 l101 0 Z" /><glyph glyph-name="" unicode="ï" d="M203 0 l0 521 l-130 0 l0 -521 l130 0 ZM433 667 q-1 28 -20 47 q-19 19 -47 20 q-28 -1 -47 -20 q-19 -19 -20 -47 q1 -28 20 -47 q19 -19 47 -20 q28 1 47 20 q19 19 20 47 l0 0 ZM207 667 q-1 28 -20 47 q-19 19 -47 20 q-28 -1 -47 -20 q-19 -19 -20 -47 q1 -28 20 -47 q19 -19 47 -20 q28 1 47 20 q19 19 20 47 l0 0 Z" /><glyph glyph-name="" unicode="ñ" d="M506 0 l0 333 q1 43 -11 80 q-11 37 -42 68 q-22 22 -53 34 q-31 12 -70 12 q-36 0 -70 -13 q-34 -14 -60 -41 l0 48 l-127 0 l0 -521 l130 0 l0 315 q2 53 28 74 q27 22 59 21 q32 1 58 -21 q26 -21 28 -74 l0 -315 l130 0 ZM470 674 l-58 57 q-19 -19 -33 -24 q-14 -6 -26 -5 q-15 0 -27 5 q-13 4 -28 13 q-20 13 -38 18 q-17 5 -39 5 q-28 0 -54 -13 q-26 -13 -58 -46 l56 -57 q19 19 33 24 q14 6 26 5 q15 0 28 -5 q14 -5 28 -13 q20 -12 38 -17 q18 -6 39 -6 q28 0 54 13 q27 13 59 46 l0 0 Z" /><glyph glyph-name="" unicode="ó" d="M492 261 q1 70 -12 118 q-12 48 -47 84 q-24 26 -64 45 q-40 18 -98 19 q-58 -1 -97 -19 q-40 -19 -64 -45 q-35 -36 -47 -84 q-13 -48 -12 -118 q-1 -70 12 -119 q12 -48 47 -84 q24 -26 64 -45 q39 -18 97 -19 q58 1 98 19 q40 19 64 45 q35 36 47 84 q13 49 12 119 l0 0 ZM362 261 q1 -41 -5 -74 q-5 -32 -25 -53 q-22 -23 -61 -23 q-19 0 -34 6 q-15 6 -26 17 q-20 21 -25 53 q-6 33 -5 74 q-1 41 5 73 q5 32 25 53 q11 11 26 17 q15 6 34 6 q39 0 61 -23 q20 -21 25 -53 q6 -32 5 -73 l0 0 ZM418 774 l-137 0 l-64 -170 l87 0 l114 170 Z" /><glyph glyph-name="" unicode="ò" d="M492 261 q1 70 -12 118 q-12 48 -47 84 q-24 26 -64 45 q-40 18 -98 19 q-58 -1 -97 -19 q-40 -19 -64 -45 q-35 -36 -47 -84 q-13 -48 -12 -118 q-1 -70 12 -119 q12 -48 47 -84 q24 -26 64 -45 q39 -18 97 -19 q58 1 98 19 q40 19 64 45 q35 36 47 84 q13 49 12 119 l0 0 ZM362 261 q1 -41 -5 -74 q-5 -32 -25 -53 q-22 -23 -61 -23 q-19 0 -34 6 q-15 6 -26 17 q-20 21 -25 53 q-6 33 -5 74 q-1 41 5 73 q5 32 25 53 q11 11 26 17 q15 6 34 6 q39 0 61 -23 q20 -21 25 -53 q6 -32 5 -73 l0 0 ZM323 604 l-64 170 l-137 0 l114 -170 l87 0 Z" /><glyph glyph-name="" unicode="ô" d="M492 261 q1 70 -12 118 q-12 48 -47 84 q-24 26 -64 45 q-40 18 -98 19 q-58 -1 -97 -19 q-40 -19 -64 -45 q-35 -36 -47 -84 q-13 -48 -12 -118 q-1 -70 12 -119 q12 -48 47 -84 q24 -26 64 -45 q39 -18 97 -19 q58 1 98 19 q40 19 64 45 q35 36 47 84 q13 49 12 119 l0 0 ZM362 261 q1 -41 -5 -74 q-5 -32 -25 -53 q-22 -23 -61 -23 q-19 0 -34 6 q-15 6 -26 17 q-20 21 -25 53 q-6 33 -5 74 q-1 41 5 73 q5 32 25 53 q11 11 26 17 q15 6 34 6 q39 0 61 -23 q20 -21 25 -53 q6 -32 5 -73 l0 0 ZM456 604 l-132 169 l-104 0 l-132 -169 l101 0 l83 91 l83 -91 l101 0 Z" /><glyph glyph-name="" unicode="ö" d="M492 261 q1 70 -12 118 q-12 48 -47 84 q-24 26 -64 45 q-40 18 -98 19 q-58 -1 -97 -19 q-40 -19 -64 -45 q-35 -36 -47 -84 q-13 -48 -12 -118 q-1 -70 12 -119 q12 -48 47 -84 q24 -26 64 -45 q39 -18 97 -19 q58 1 98 19 q40 19 64 45 q35 36 47 84 q13 49 12 119 l0 0 ZM362 261 q1 -41 -5 -74 q-5 -32 -25 -53 q-22 -23 -61 -23 q-19 0 -34 6 q-15 6 -26 17 q-20 21 -25 53 q-6 33 -5 74 q-1 41 5 73 q5 32 25 53 q11 11 26 17 q15 6 34 6 q39 0 61 -23 q20 -21 25 -53 q6 -32 5 -73 l0 0 ZM452 667 q-1 28 -20 47 q-19 19 -47 20 q-28 -1 -47 -20 q-19 -19 -20 -47 q1 -28 20 -47 q19 -19 47 -20 q28 1 47 20 q19 19 20 47 l0 0 ZM226 667 q-1 28 -20 47 q-19 19 -47 20 q-28 -1 -47 -20 q-19 -19 -20 -47 q1 -28 20 -47 q19 -19 47 -20 q28 1 47 20 q19 19 20 47 l0 0 Z" /><glyph glyph-name="" unicode="õ" d="M492 261 q1 70 -12 118 q-12 48 -47 84 q-24 26 -64 45 q-40 18 -98 19 q-58 -1 -97 -19 q-40 -19 -64 -45 q-35 -36 -47 -84 q-13 -48 -12 -118 q-1 -70 12 -119 q12 -48 47 -84 q24 -26 64 -45 q39 -18 97 -19 q58 1 98 19 q40 19 64 45 q35 36 47 84 q13 49 12 119 l0 0 ZM362 261 q1 -41 -5 -74 q-5 -32 -25 -53 q-22 -23 -61 -23 q-19 0 -34 6 q-15 6 -26 17 q-20 21 -25 53 q-6 33 -5 74 q-1 41 5 73 q5 32 25 53 q11 11 26 17 q15 6 34 6 q39 0 61 -23 q20 -21 25 -53 q6 -32 5 -73 l0 0 ZM452 674 l-58 57 q-19 -19 -33 -24 q-14 -6 -26 -5 q-15 0 -27 5 q-13 4 -28 13 q-20 13 -38 18 q-17 5 -39 5 q-28 0 -54 -13 q-26 -13 -58 -46 l56 -57 q19 19 33 24 q14 6 26 5 q15 0 28 -5 q14 -5 28 -13 q20 -12 38 -17 q18 -6 39 -6 q28 0 54 13 q27 13 59 46 l0 0 Z" /><glyph glyph-name="" unicode="ú" d="M500 0 l0 521 l-130 0 l0 -315 q-2 -53 -28 -74 q-27 -22 -59 -21 q-32 -1 -58 21 q-26 21 -28 74 l0 315 l-130 0 l0 -333 q-1 -43 11 -80 q11 -37 42 -68 q22 -22 53 -34 q31 -12 70 -12 q36 0 70 14 q34 13 60 40 l0 -48 l127 0 ZM429 774 l-137 0 l-64 -170 l87 0 l114 170 Z" /><glyph glyph-name="" unicode="ù" d="M500 0 l0 521 l-130 0 l0 -315 q-2 -53 -28 -74 q-27 -22 -59 -21 q-32 -1 -58 21 q-26 21 -28 74 l0 315 l-130 0 l0 -333 q-1 -43 11 -80 q11 -37 42 -68 q22 -22 53 -34 q31 -12 70 -12 q36 0 70 14 q34 13 60 40 l0 -48 l127 0 ZM338 604 l-64 170 l-137 0 l114 -170 l87 0 Z" /><glyph glyph-name="" unicode="û" d="M500 0 l0 521 l-130 0 l0 -315 q-2 -53 -28 -74 q-27 -22 -59 -21 q-32 -1 -58 21 q-26 21 -28 74 l0 315 l-130 0 l0 -333 q-1 -43 11 -80 q11 -37 42 -68 q22 -22 53 -34 q31 -12 70 -12 q36 0 70 14 q34 13 60 40 l0 -48 l127 0 ZM467 604 l-132 169 l-104 0 l-132 -169 l101 0 l83 91 l83 -91 l101 0 Z" /><glyph glyph-name="" unicode="ü" d="M500 0 l0 521 l-130 0 l0 -315 q-2 -53 -28 -74 q-27 -22 -59 -21 q-32 -1 -58 21 q-26 21 -28 74 l0 315 l-130 0 l0 -333 q-1 -43 11 -80 q11 -37 42 -68 q22 -22 53 -34 q31 -12 70 -12 q36 0 70 14 q34 13 60 40 l0 -48 l127 0 ZM463 667 q-1 28 -20 47 q-19 19 -47 20 q-28 -1 -47 -20 q-19 -19 -20 -47 q1 -28 20 -47 q19 -19 47 -20 q28 1 47 20 q19 19 20 47 l0 0 ZM237 667 q-1 28 -20 47 q-19 19 -47 20 q-28 -1 -47 -20 q-19 -19 -20 -47 q1 -28 20 -47 q19 -19 47 -20 q28 1 47 20 q19 19 20 47 l0 0 Z" /><glyph glyph-name="" unicode="°" d="M423 542 q-2 79 -54 131 q-52 52 -130 54 q-78 -2 -130 -54 q-52 -52 -54 -131 q2 -78 54 -130 q52 -52 130 -54 q78 2 130 54 q52 52 54 130 l0 0 ZM318 542 q-1 -35 -23 -57 q-22 -22 -56 -23 q-34 1 -56 23 q-22 22 -23 57 q1 35 23 57 q21 22 55 23 q34 -1 57 -23 q22 -22 23 -57 l0 0 Z" /><glyph glyph-name="" unicode="®" d="M784 356 q-4 154 -106 256 q-102 102 -256 106 q-154 -4 -256 -106 q-102 -102 -106 -256 q4 -154 106 -256 q102 -102 256 -106 q154 4 256 106 q102 102 106 256 l0 0 ZM698 356 q-3 -123 -79 -201 q-77 -78 -197 -80 q-120 2 -196 80 q-77 78 -80 201 q3 123 80 201 q76 78 196 80 q120 -2 197 -80 q76 -78 79 -201 l0 0 ZM585 164 l-81 162 q29 11 49 37 q21 25 22 65 q-1 50 -35 85 q-34 34 -93 36 l-157 0 l0 -385 l86 0 l0 149 l41 0 l70 -149 l98 0 ZM489 428 q0 -21 -14 -35 q-15 -14 -39 -15 l-60 0 l0 100 l60 0 q24 -1 39 -15 q14 -14 14 -35 l0 0 Z" /><glyph glyph-name="" unicode="©" d="M784 356 q-4 154 -106 256 q-102 102 -256 106 q-154 -4 -256 -106 q-102 -102 -106 -256 q4 -154 106 -256 q102 -102 256 -106 q154 4 256 106 q102 102 106 256 l0 0 ZM697 356 q-3 -123 -79 -201 q-77 -78 -196 -80 q-119 2 -196 80 q-77 78 -80 201 q3 123 80 201 q77 78 196 80 q119 -2 196 -80 q76 -78 79 -201 l0 0 ZM561 212 l-56 56 q-20 -17 -37 -25 q-17 -7 -39 -7 q-47 1 -71 33 q-23 32 -23 87 q0 55 23 87 q24 32 71 33 q22 0 39 -7 q17 -8 37 -25 l56 56 q-28 25 -59 39 q-32 14 -73 14 q-77 0 -127 -50 q-50 -51 -52 -147 q2 -96 52 -146 q50 -50 127 -50 q42 0 73 14 q32 13 59 38 l0 0 Z" /><glyph glyph-name="" unicode="&#x2122;" d="M860 285 l0 427 l-95 0 l-122 -228 l-122 228 l-95 0 l0 -427 l95 0 l0 252 l80 -157 l84 0 l80 157 l0 -252 l95 0 ZM360 627 l0 85 l-315 0 l0 -85 l110 0 l0 -342 l95 0 l0 342 l110 0 Z" /><glyph glyph-name="" unicode="&#x2260;" d="M552 116 l0 122 l-226 0 l78 95 l148 0 l0 122 l-55 0 l55 67 l-79 62 l-103 -129 l-320 0 l0 -122 l227 0 l-78 -95 l-149 0 l0 -122 l55 0 l-55 -67 l79 -62 l103 129 l320 0 Z" /><glyph glyph-name="" unicode="&#x221e;" d="M796 284 q0 81 -48 134 q-49 54 -142 56 q-53 0 -98 -26 q-45 -25 -83 -69 q-38 44 -83 69 q-45 26 -97 26 q-93 -2 -141 -56 q-49 -53 -49 -134 q0 -81 49 -133 q48 -53 141 -55 q52 0 97 25 q45 25 83 69 q38 -44 83 -69 q45 -25 98 -25 q93 2 142 55 q48 52 48 133 l0 0 ZM670 281 q-1 -31 -19 -48 q-19 -17 -46 -17 q-26 1 -48 19 q-21 18 -43 46 q22 28 43 46 q22 18 48 19 q27 0 46 -17 q18 -17 19 -48 l0 0 ZM337 281 q-22 -28 -44 -46 q-21 -18 -48 -19 q-27 0 -45 17 q-18 17 -19 48 q1 31 19 48 q18 18 45 18 q27 -1 48 -19 q22 -19 44 -47 l0 0 Z" /><glyph glyph-name="" unicode="±" d="M493 341 l0 121 l-160 0 l0 161 l-122 0 l0 -161 l-161 0 l0 -121 l161 0 l0 -161 l122 0 l0 161 l160 0 ZM493 0 l0 122 l-443 0 l0 -122 l443 0 Z" /><glyph glyph-name="" unicode="&#x2264;" d="M884 526 l-87 87 l-497 -497 l1 460 l-116 -116 l0 -545 l546 0 l116 115 l-460 -1 l497 497 Z" /><glyph glyph-name="" unicode="&#x2265;" d="M841 -85 l0 544 l-116 116 l2 -460 l-498 498 l-87 -87 l498 -498 l-460 2 l116 -115 l545 0 Z" /><glyph glyph-name="" unicode="µ" d="M503 0 l0 521 l-130 0 l0 -315 q-2 -53 -28 -74 q-27 -22 -59 -21 q-32 -1 -58 21 q-26 21 -28 74 l0 315 l-130 0 l0 -712 l130 0 l0 199 q18 -14 46 -14 q36 0 70 14 q34 13 60 40 l0 -48 l127 0 Z" /><glyph glyph-name="" unicode="&#x2202;" d="M482 254 l0 227 q0 105 -57 170 q-57 65 -172 67 q-59 1 -104 -14 q-45 -16 -85 -54 l81 -82 q21 21 45 31 q24 9 57 9 q60 -3 82 -35 q23 -32 22 -62 q0 -2 0 -13 q0 -12 0 -14 q-19 17 -41 23 q-23 6 -46 6 q-55 -1 -92 -18 q-37 -18 -58 -42 q-33 -35 -46 -82 q-13 -47 -12 -117 q-1 -68 12 -115 q13 -48 46 -83 q23 -26 61 -43 q39 -18 94 -19 q55 1 94 19 q39 17 62 43 q33 35 45 83 q13 47 12 115 l0 0 ZM352 254 q1 -39 -4 -70 q-6 -31 -23 -51 q-11 -11 -25 -16 q-14 -6 -31 -6 q-17 0 -31 6 q-14 5 -25 16 q-17 20 -22 51 q-6 31 -5 70 q-1 39 5 69 q5 31 22 51 q11 11 25 16 q14 6 31 6 q17 0 31 -6 q14 -5 25 -16 q17 -20 23 -51 q5 -30 4 -69 l0 0 Z" /><glyph glyph-name="" unicode="&#x2211;" d="M515 -191 l0 124 l-315 0 l146 295 l0 129 l-141 279 l306 0 l0 124 l-468 0 l0 -110 l186 -355 l-189 -376 l0 -110 l475 0 Z" /><glyph glyph-name="" unicode="&#x220f;" d="M602 -191 l0 951 l-519 0 l0 -951 l139 0 l0 828 l241 0 l0 -828 l139 0 Z" /><glyph glyph-name="" unicode="&#x3c0;" d="M515 0 l0 521 l-439 0 l0 -521 l130 0 l0 399 l180 0 l0 -399 l129 0 Z" /><glyph glyph-name="" unicode="&#x222b;" d="M433 615 l0 110 l-65 0 q-87 0 -138 -47 q-52 -47 -53 -135 l0 -549 q0 -36 -19 -53 q-18 -17 -52 -17 l-49 0 l0 -110 l65 0 q87 0 138 47 q52 46 53 134 l0 549 q0 36 19 54 q18 17 52 17 l49 0 Z" /><glyph glyph-name="" unicode="&#x3a9;" d="M585 0 l0 123 l-59 0 q13 13 21 27 q9 14 15 28 q15 37 19 83 q4 45 4 95 q2 92 -8 161 q-11 70 -63 123 q-37 38 -84 58 q-48 20 -108 20 q-61 0 -108 -20 q-48 -20 -85 -58 q-52 -53 -62 -123 q-10 -69 -8 -161 q0 -50 4 -95 q4 -46 19 -83 q6 -14 15 -28 q8 -14 21 -27 l-59 0 l0 -123 l219 0 l0 109 q-18 8 -31 19 q-13 11 -23 25 q-13 18 -20 62 q-6 44 -6 134 q0 100 7 143 q8 43 27 63 q15 18 38 28 q23 11 52 11 q29 0 51 -11 q23 -10 38 -28 q19 -20 27 -63 q8 -43 8 -143 q0 -90 -6 -134 q-7 -44 -20 -62 q-10 -14 -23 -25 q-13 -11 -31 -19 l0 -109 l219 0 Z" /><glyph glyph-name="" unicode="¬" d="M497 94 l0 266 l-451 0 l0 -121 l330 0 l0 -145 l121 0 Z" /><glyph glyph-name="" unicode="&#x221a;" d="M566 588 l0 124 l-195 0 l-143 -464 l-84 273 l-141 0 l172 -521 l105 0 l194 588 l92 0 Z" /><glyph glyph-name="" unicode="&#x2248;" d="M569 393 l-83 82 q-27 -27 -47 -35 q-20 -9 -40 -8 q-21 0 -40 7 q-20 7 -41 18 q-32 17 -59 25 q-28 8 -58 8 q-44 0 -82 -20 q-37 -20 -82 -66 l82 -82 q27 27 47 35 q19 8 39 7 q21 0 41 -6 q20 -7 41 -18 q32 -17 59 -25 q28 -8 58 -8 q45 0 82 20 q38 20 83 66 l0 0 ZM569 167 l-82 82 q-27 -27 -47 -35 q-19 -8 -39 -7 q-21 0 -41 6 q-20 7 -41 18 q-32 17 -59 25 q-27 8 -57 8 q-45 0 -83 -20 q-38 -20 -83 -66 l83 -82 q27 27 47 35 q20 9 40 8 q21 0 41 -7 q19 -7 40 -18 q32 -17 59 -25 q28 -8 58 -8 q44 0 82 20 q37 20 82 66 l0 0 Z" /><glyph glyph-name="" unicode="&#x394;" d="M631 0 l-260 712 l-108 0 l-260 -712 l628 0 ZM450 117 l-264 0 l134 385 l130 -385 Z" /><glyph glyph-name="" unicode=" " d="" /><glyph glyph-name="" unicode="À" d="M633 0 l-260 712 l-109 0 l-259 -712 l145 0 l43 126 l253 0 l42 -126 l145 0 ZM409 243 l-177 0 l90 259 l87 -259 ZM372 781 l-64 170 l-137 0 l114 -170 l87 0 Z" /><glyph glyph-name="" unicode="Ã" d="M633 0 l-260 712 l-109 0 l-259 -712 l145 0 l43 126 l253 0 l42 -126 l145 0 ZM409 243 l-177 0 l90 259 l87 -259 ZM497 851 l-58 57 q-19 -19 -33 -24 q-14 -6 -26 -5 q-15 0 -27 5 q-13 4 -28 13 q-20 13 -38 18 q-17 5 -39 5 q-28 0 -54 -13 q-26 -13 -58 -46 l56 -57 q19 19 33 24 q14 6 26 5 q15 0 28 -5 q14 -5 28 -13 q20 -12 38 -17 q18 -6 39 -6 q28 0 54 13 q27 13 59 46 l0 0 Z" /><glyph glyph-name="" unicode="Õ" d="M585 356 q2 92 -8 161 q-11 70 -63 123 q-37 38 -84 58 q-48 20 -108 20 q-61 0 -108 -20 q-48 -20 -85 -58 q-52 -53 -62 -123 q-10 -69 -8 -161 q-2 -92 8 -161 q10 -70 62 -123 q37 -38 85 -58 q47 -20 108 -20 q60 0 108 20 q47 20 84 58 q52 53 63 123 q10 69 8 161 l0 0 ZM446 356 q0 -100 -7 -140 q-8 -41 -28 -60 q-15 -17 -38 -28 q-22 -10 -51 -10 q-29 0 -52 10 q-23 11 -38 28 q-20 19 -27 60 q-7 40 -7 140 q0 100 7 140 q7 41 27 60 q15 17 38 28 q23 10 52 10 q29 0 51 -10 q23 -11 38 -28 q20 -19 28 -60 q7 -40 7 -140 l0 0 ZM502 851 l-58 57 q-19 -19 -33 -24 q-14 -6 -26 -5 q-15 0 -27 5 q-13 4 -28 13 q-20 13 -38 18 q-17 5 -39 5 q-28 0 -54 -13 q-26 -13 -58 -46 l56 -57 q19 19 33 24 q14 6 26 5 q15 0 28 -5 q14 -5 28 -13 q20 -12 38 -17 q18 -6 39 -6 q28 0 54 13 q27 13 59 46 l0 0 Z" /><glyph glyph-name="" unicode="÷" d="M359 492 q-1 37 -25 62 q-25 25 -62 26 q-37 -1 -62 -26 q-25 -25 -26 -62 q1 -37 26 -61 q25 -25 62 -26 q37 1 62 26 q24 24 25 61 l0 0 ZM497 225 l0 121 l-451 0 l0 -121 l451 0 ZM359 79 q-1 37 -25 62 q-25 24 -62 25 q-37 -1 -62 -25 q-25 -25 -26 -62 q1 -37 26 -62 q25 -25 62 -26 q37 1 62 26 q24 25 25 62 l0 0 Z" /><glyph glyph-name="" unicode="&#x25ca;" d="M581 341 l-263 366 l-263 -366 l263 -367 l263 367 ZM435 341 l-117 -165 l-117 165 l117 164 l117 -164 Z" /><glyph glyph-name="" unicode="ÿ" d="M490 521 l-137 0 l-104 -322 l-108 322 l-137 0 l178 -484 l-22 -64 q-9 -28 -23 -38 q-15 -10 -42 -9 l-30 0 l0 -117 l51 0 q32 0 61 9 q28 9 51 31 q12 12 21 29 q10 16 18 38 l223 605 ZM424 667 q-1 28 -20 47 q-19 19 -47 20 q-28 -1 -47 -20 q-19 -19 -20 -47 q1 -28 20 -47 q19 -19 47 -20 q28 1 47 20 q19 19 20 47 l0 0 ZM198 667 q-1 28 -20 47 q-19 19 -47 20 q-28 -1 -47 -20 q-19 -19 -20 -47 q1 -28 20 -47 q19 -19 47 -20 q28 1 47 20 q19 19 20 47 l0 0 Z" /><glyph glyph-name="" unicode="&#x178;" d="M569 712 l-151 0 l-131 -287 l-133 287 l-151 0 l214 -420 l0 -292 l138 0 l0 292 l214 420 ZM465 844 q-1 28 -20 47 q-19 19 -47 20 q-28 -1 -47 -20 q-19 -19 -20 -47 q1 -28 20 -47 q19 -19 47 -20 q28 1 47 20 q19 19 20 47 l0 0 ZM239 844 q-1 28 -20 47 q-19 19 -47 20 q-28 -1 -47 -20 q-19 -19 -20 -47 q1 -28 20 -47 q19 -19 47 -20 q28 1 47 20 q19 19 20 47 l0 0 Z" /><glyph glyph-name="" unicode="Â" d="M633 0 l-260 712 l-109 0 l-259 -712 l145 0 l43 126 l253 0 l42 -126 l145 0 ZM409 243 l-177 0 l90 259 l87 -259 ZM501 781 l-132 169 l-104 0 l-132 -169 l101 0 l83 91 l83 -91 l101 0 Z" /><glyph glyph-name="" unicode="Ê" d="M552 0 l0 124 l-330 0 l0 173 l281 0 l0 124 l-281 0 l0 167 l330 0 l0 124 l-469 0 l0 -712 l469 0 ZM494 781 l-132 169 l-104 0 l-132 -169 l101 0 l83 91 l83 -91 l101 0 Z" /><glyph glyph-name="" unicode="Á" d="M633 0 l-260 712 l-109 0 l-259 -712 l145 0 l43 126 l253 0 l42 -126 l145 0 ZM409 243 l-177 0 l90 259 l87 -259 ZM463 951 l-137 0 l-64 -170 l87 0 l114 170 Z" /><glyph glyph-name="" unicode="Ë" d="M552 0 l0 124 l-330 0 l0 173 l281 0 l0 124 l-281 0 l0 167 l330 0 l0 124 l-469 0 l0 -712 l469 0 ZM490 844 q-1 28 -20 47 q-19 19 -47 20 q-28 -1 -47 -20 q-19 -19 -20 -47 q1 -28 20 -47 q19 -19 47 -20 q28 1 47 20 q19 19 20 47 l0 0 ZM264 844 q-1 28 -20 47 q-19 19 -47 20 q-28 -1 -47 -20 q-19 -19 -20 -47 q1 -28 20 -47 q19 -19 47 -20 q28 1 47 20 q19 19 20 47 l0 0 Z" /><glyph glyph-name="" unicode="È" d="M552 0 l0 124 l-330 0 l0 173 l281 0 l0 124 l-281 0 l0 167 l330 0 l0 124 l-469 0 l0 -712 l469 0 ZM365 781 l-64 170 l-137 0 l114 -170 l87 0 Z" /><glyph glyph-name="" unicode="Í" d="M222 0 l0 712 l-139 0 l0 -712 l139 0 ZM284 951 l-137 0 l-64 -170 l87 0 l114 170 Z" /><glyph glyph-name="" unicode="Î" d="M222 0 l0 712 l-139 0 l0 -712 l139 0 ZM451 781 l-132 169 l-104 0 l-132 -169 l101 0 l83 91 l83 -91 l101 0 Z" /><glyph glyph-name="" unicode="Ï" d="M222 0 l0 712 l-139 0 l0 -712 l139 0 ZM443 844 q-1 28 -20 47 q-19 19 -47 20 q-28 -1 -47 -20 q-19 -19 -20 -47 q1 -28 20 -47 q19 -19 47 -20 q28 1 47 20 q19 19 20 47 l0 0 ZM217 844 q-1 28 -20 47 q-19 19 -47 20 q-28 -1 -47 -20 q-19 -19 -20 -47 q1 -28 20 -47 q19 -19 47 -20 q28 1 47 20 q19 19 20 47 l0 0 Z" /><glyph glyph-name="" unicode="Ì" d="M222 0 l0 712 l-139 0 l0 -712 l139 0 ZM284 781 l-64 170 l-137 0 l114 -170 l87 0 Z" /><glyph glyph-name="" unicode="Ó" d="M585 356 q2 92 -8 161 q-11 70 -63 123 q-37 38 -84 58 q-48 20 -108 20 q-61 0 -108 -20 q-48 -20 -85 -58 q-52 -53 -62 -123 q-10 -69 -8 -161 q-2 -92 8 -161 q10 -70 62 -123 q37 -38 85 -58 q47 -20 108 -20 q60 0 108 20 q47 20 84 58 q52 53 63 123 q10 69 8 161 l0 0 ZM446 356 q0 -100 -7 -140 q-8 -41 -28 -60 q-15 -17 -38 -28 q-22 -10 -51 -10 q-29 0 -52 10 q-23 11 -38 28 q-20 19 -27 60 q-7 40 -7 140 q0 100 7 140 q7 41 27 60 q15 17 38 28 q23 10 52 10 q29 0 51 -10 q23 -11 38 -28 q20 -19 28 -60 q7 -40 7 -140 l0 0 ZM468 951 l-137 0 l-64 -170 l87 0 l114 170 Z" /><glyph glyph-name="" unicode="Ô" d="M585 356 q2 92 -8 161 q-11 70 -63 123 q-37 38 -84 58 q-48 20 -108 20 q-61 0 -108 -20 q-48 -20 -85 -58 q-52 -53 -62 -123 q-10 -69 -8 -161 q-2 -92 8 -161 q10 -70 62 -123 q37 -38 85 -58 q47 -20 108 -20 q60 0 108 20 q47 20 84 58 q52 53 63 123 q10 69 8 161 l0 0 ZM446 356 q0 -100 -7 -140 q-8 -41 -28 -60 q-15 -17 -38 -28 q-22 -10 -51 -10 q-29 0 -52 10 q-23 11 -38 28 q-20 19 -27 60 q-7 40 -7 140 q0 100 7 140 q7 41 27 60 q15 17 38 28 q23 10 52 10 q29 0 51 -10 q23 -11 38 -28 q20 -19 28 -60 q7 -40 7 -140 l0 0 ZM506 781 l-132 169 l-104 0 l-132 -169 l101 0 l83 91 l83 -91 l101 0 Z" /><glyph glyph-name="" unicode="Ò" d="M585 356 q2 92 -8 161 q-11 70 -63 123 q-37 38 -84 58 q-48 20 -108 20 q-61 0 -108 -20 q-48 -20 -85 -58 q-52 -53 -62 -123 q-10 -69 -8 -161 q-2 -92 8 -161 q10 -70 62 -123 q37 -38 85 -58 q47 -20 108 -20 q60 0 108 20 q47 20 84 58 q52 53 63 123 q10 69 8 161 l0 0 ZM446 356 q0 -100 -7 -140 q-8 -41 -28 -60 q-15 -17 -38 -28 q-22 -10 -51 -10 q-29 0 -52 10 q-23 11 -38 28 q-20 19 -27 60 q-7 40 -7 140 q0 100 7 140 q7 41 27 60 q15 17 38 28 q23 10 52 10 q29 0 51 -10 q23 -11 38 -28 q20 -19 28 -60 q7 -40 7 -140 l0 0 ZM377 781 l-64 170 l-137 0 l114 -170 l87 0 Z" /><glyph glyph-name="" unicode="Ú" d="M596 244 l0 468 l-138 0 l0 -463 q-1 -62 -34 -96 q-33 -34 -90 -35 q-57 1 -90 35 q-32 34 -33 96 l0 463 l-139 0 l0 -468 q3 -115 76 -182 q74 -67 186 -68 q112 1 186 68 q73 67 76 182 l0 0 ZM480 951 l-137 0 l-64 -170 l87 0 l114 170 Z" /><glyph glyph-name="" unicode="Û" d="M596 244 l0 468 l-138 0 l0 -463 q-1 -62 -34 -96 q-33 -34 -90 -35 q-57 1 -90 35 q-32 34 -33 96 l0 463 l-139 0 l0 -468 q3 -115 76 -182 q74 -67 186 -68 q112 1 186 68 q73 67 76 182 l0 0 ZM518 781 l-132 169 l-104 0 l-132 -169 l101 0 l83 91 l83 -91 l101 0 Z" /><glyph glyph-name="" unicode="Ù" d="M596 244 l0 468 l-138 0 l0 -463 q-1 -62 -34 -96 q-33 -34 -90 -35 q-57 1 -90 35 q-32 34 -33 96 l0 463 l-139 0 l0 -468 q3 -115 76 -182 q74 -67 186 -68 q112 1 186 68 q73 67 76 182 l0 0 ZM389 781 l-64 170 l-137 0 l114 -170 l87 0 Z" /></font>
</defs>
</svg>
